<?xml version="1.0" standalone="no"?>
<!DOCTYPE svg PUBLIC "-//W3C//DTD SVG 1.1//EN" "http://www.w3.org/Graphics/SVG/1.1/DTD/svg11.dtd" >
<svg xmlns="http://www.w3.org/2000/svg" xmlns:xlink="http://www.w3.org/1999/xlink" version="1.1">
<metadata>
Created by FontForge 20201107 at Thu Jun 19 17:25:21 2014
 By Jimmy Wärting
Copyright (c) 2014 by The Foundry. All rights reserved.
</metadata>
<defs>
<font id="LandRoverWeb-Demi" horiz-adv-x="417" >
  <font-face 
    font-family="Land Rover Web Demi"
    font-weight="600"
    font-stretch="normal"
    units-per-em="1000"
    panose-1="0 0 0 0 0 0 0 0 0 0"
    ascent="700"
    descent="-300"
    x-height="486"
    cap-height="667"
    bbox="-190 -247 1555 1022"
    underline-thickness="50"
    underline-position="-100"
    unicode-range="U+0020-FB04"
  />
<missing-glyph horiz-adv-x="237" 
d="M24 0v667h189v-667h-189zM189 24v619h-141v-619h141z" />
    <glyph glyph-name="fi" unicode="fi" horiz-adv-x="556" 
d="M317 705v-84h-42q-50 0 -65.5 -19t-15.5 -79v-37h123v-83h-123v-403h-99v403h-78v83h78v65q0 102 66 135q38 19 111 19h45zM440 674q26 0 41 -14q15 -15 15 -41t-15 -41t-41 -15t-41 15t-15 41t15 40.5t41 14.5zM490 0h-99v486h99v-486z" />
    <glyph glyph-name="fl" unicode="fl" horiz-adv-x="584" 
d="M317 705v-84h-42q-50 0 -65.5 -19t-15.5 -79v-37h123v-83h-123v-403h-99v403h-78v83h78v65q0 102 66 135q38 19 111 19h45zM585 78v-83h-27q-84 0 -121 28q-46 35 -46 123v551h99v-520q0 -36 2.5 -52.5t9.5 -26.5q14 -20 59 -20h24z" />
    <glyph glyph-name="IJ" unicode="IJ" horiz-adv-x="806" 
d="M184 0h-104v667h104v-667zM732 667v-451q0 -63 -4 -85q-13 -83 -85 -116q-49 -23 -129 -23q-114 0 -166 46t-52 145h100q0 -56 25 -76.5t93 -20.5q54 0 79 14q23 12 30 42q5 20 5 72v453h104z" />
    <glyph glyph-name="ij" unicode="ij" horiz-adv-x="462" 
d="M116 674q26 0 41 -14q15 -15 15 -41t-15 -41t-41 -15t-41 15t-15 41t15 40.5t41 14.5zM166 0h-99v486h99v-486zM178 -190v83h39q49 0 64.5 19t15.5 79v495h99v-522q0 -102 -66 -135q-38 -19 -111 -19h-41zM346 674q26 0 41 -14q15 -15 15 -41t-15 -41t-41 -15t-41 15
t-15 41t15 40.5t41 14.5z" />
    <glyph glyph-name="f_f" unicode="ff" horiz-adv-x="638" 
d="M612 705v-84h-42q-49 0 -64.5 -19t-15.5 -79v-37h122v-83h-122v-403h-99v403h-197v-403h-99v403h-78v83h78v65q0 102 66 135q38 19 111 19h45v-84h-42q-50 0 -65.5 -19t-15.5 -79v-37h197v65q0 102 66 135q37 19 111 19h44z" />
    <glyph glyph-name="f_f_i" unicode="ffi" horiz-adv-x="851" 
d="M612 705v-84h-42q-49 0 -64.5 -19t-15.5 -79v-37h122v-83h-122v-403h-99v403h-197v-403h-99v403h-78v83h78v65q0 102 66 135q38 19 111 19h45v-84h-42q-50 0 -65.5 -19t-15.5 -79v-37h197v65q0 102 66 135q37 19 111 19h44zM735 674q26 0 41 -14q15 -15 15 -41t-15 -41
t-41 -15t-41 15t-15 41t15 40.5t41 14.5zM785 0h-99v486h99v-486z" />
    <glyph glyph-name="f_f_l" unicode="ffl" horiz-adv-x="880" 
d="M612 705v-84h-42q-49 0 -64.5 -19t-15.5 -79v-37h122v-83h-122v-403h-99v403h-197v-403h-99v403h-78v83h78v65q0 102 66 135q38 19 111 19h45v-84h-42q-50 0 -65.5 -19t-15.5 -79v-37h197v65q0 102 66 135q37 19 111 19h44zM880 78v-83h-27q-84 0 -121 28q-46 35 -46 123
v551h99v-520q0 -36 2.5 -52.5t9.5 -26.5q14 -20 59 -20h24z" />
    <glyph glyph-name="f_j" unicode="fj" horiz-adv-x="556" 
d="M317 705v-84h-42q-50 0 -65.5 -19t-15.5 -79v-37h123v-83h-123v-403h-99v403h-78v83h78v65q0 102 66 135q38 19 111 19h45zM272 -190v83h38q50 0 65.5 19t15.5 79v495h99v-522q0 -102 -66 -135q-38 -19 -111 -19h-41zM440 674q26 0 41 -14q15 -15 15 -41t-15 -41t-41 -15
t-41 15t-15 41t15 40.5t41 14.5z" />
    <glyph glyph-name="f_t" unicode="ft" horiz-adv-x="633" 
d="M612 79v-84h-49q-86 0 -125 31q-47 36 -47 123v254h-197v-403h-99v403h-78v83h78v65q0 102 66 135q38 19 111 19h45v-84h-42q-50 0 -65.5 -19t-15.5 -79v-37h197v181h99v-181h122v-83h-122v-225q0 -36 2.5 -52t10.5 -26q15 -21 65 -21h44z" />
    <glyph glyph-name=".notdef" horiz-adv-x="237" 
d="M24 0v667h189v-667h-189zM189 24v619h-141v-619h141z" />
    <glyph glyph-name="glyph1" horiz-adv-x="0" 
 />
    <glyph glyph-name="glyph2" horiz-adv-x="237" 
 />
    <glyph glyph-name="space" unicode=" " horiz-adv-x="237" 
 />
    <glyph glyph-name="exclam" unicode="!" horiz-adv-x="293" 
d="M195 190h-97v477h97v-477zM147 117q62 0 62 -62q0 -63 -62 -63t-62 63q0 62 62 62z" />
    <glyph glyph-name="quotedbl" unicode="&#x22;" horiz-adv-x="467" 
d="M366 450h-92v217h92v-217zM194 450h-93v217h93v-217z" />
    <glyph glyph-name="numbersign" unicode="#" horiz-adv-x="592" 
d="M574 398h-114l-28 -102h92v-84h-115l-58 -212h-93l58 212h-113l-58 -212h-93l58 212h-92v84h114l28 102h-92v84h115l58 212h94l-59 -212h113l58 212h86l-51 -212h92v-84zM366 398h-112l-28 -102h112z" />
    <glyph glyph-name="dollar" unicode="$" horiz-adv-x="563" 
d="M319 388q73 -8 110 -26q40 -19 55 -58q15 -37 15 -107q-1 -103 -48 -149q-42 -40 -132 -49v-98h-85v98q-102 8 -140 47q-33 34 -36 113h93q1 -45 20 -59q17 -12 63 -14v220q-102 13 -139 58q-32 39 -32 122q0 94 46 136q40 38 125 46v94h85v-94q102 -7 138 -46
q32 -34 35 -113h-93q-1 47 -19 61q-15 12 -61 14v-196zM234 584q-48 -3 -65 -28q-15 -23 -15 -75q0 -51 18 -68q16 -15 62 -19v190zM319 86q53 4 72 32q16 25 17 83q0 34 -4 51t-14 27q-17 15 -71 21v-214z" />
    <glyph glyph-name="percent" unicode="%" horiz-adv-x="908" 
d="M661 667l-337 -667h-77l336 667h78zM208 674q95 0 126 -57q16 -31 16 -91v-72v-22q0 -50 -5.5 -78.5t-19.5 -47.5q-32 -46 -117 -46q-96 0 -125 61q-16 35 -16 116v59q0 53 5.5 81.5t18.5 48.5q31 48 117 48zM279 467q0 93 -7 114q-7 16 -21.5 23.5t-42.5 7.5t-42.5 -8
t-20.5 -25q-7 -22 -7 -112q0 -91 7 -113q7 -17 21 -24.5t42 -7.5q29 0 43.5 8t20.5 26q7 21 7 111zM669 407q94 0 125 -57q16 -31 16 -91v-72q1 -15 1 -22q0 -50 -5.5 -78.5t-19.5 -47.5q-32 -46 -117 -46q-96 0 -125 61q-16 35 -16 117v59q0 52 5 80.5t19 48.5
q31 48 117 48zM740 200q0 93 -7 114q-7 16 -21.5 23.5t-42.5 7.5t-42.5 -8t-20.5 -25q-7 -22 -7 -112q0 -91 7 -113q7 -17 21 -24.5t42 -7.5q29 0 43.5 8t20.5 26q7 21 7 111z" />
    <glyph glyph-name="ampersand" unicode="&#x26;" horiz-adv-x="610" 
d="M578 305h-58v-77q0 -88 -22 -138q-23 -52 -74 -75q-50 -22 -138 -23q-133 -1 -185 51q-46 46 -47 149q-1 68 17 106q16 33 50 52q-34 20 -48 53t-13 93q1 104 56 144q49 35 156 35q69 0 113 -15q38 -12 63 -39q20 -21 27 -43t10 -73h-97q-2 29 -8.5 44.5t-19.5 23.5
q-22 13 -87 13q-75 0 -97 -22q-20 -20 -19 -75q1 -58 28 -76q23 -16 87 -16h152v51h96v-51h58v-92zM424 305h-152q-76 0 -100 -24q-22 -22 -22 -80v-10q1 -44 13 -66q12 -24 40 -33.5t83 -9.5q58 0 86 12q29 12 40.5 41.5t11.5 92.5v77z" />
    <glyph glyph-name="quotesingle" unicode="'" horiz-adv-x="295" 
d="M194 450h-93v217h93v-217z" />
    <glyph glyph-name="parenleft" unicode="(" horiz-adv-x="338" 
d="M311 -191q-112 0 -165 31q-50 28 -69 92q-32 102 -32 374q0 275 32 378q22 72 84 99q52 23 150 23v-87q-62 0 -92 -13q-34 -15 -48 -52q-13 -34 -21 -131.5t-8 -215.5q0 -101 7 -196q7 -111 22 -150q14 -36 45 -50t95 -14v-88z" />
    <glyph glyph-name="parenright" unicode=")" horiz-adv-x="338" 
d="M27 806q112 0 165 -30q50 -28 70 -92q31 -103 31 -378q0 -272 -31 -374q-23 -73 -85 -100q-52 -23 -150 -23v88q62 0 92 13q34 14 48 51q13 34 21 131t8 215q0 102 -7 196q-7 112 -22 151q-14 36 -45 50.5t-95 14.5v87z" />
    <glyph glyph-name="asterisk" unicode="*" horiz-adv-x="528" 
d="M512 468l-178 -54l108 -141l-69 -47l-109 140l-108 -140l-70 47l109 141l-178 54l28 78l176 -54v175h86v-175l177 54z" />
    <glyph glyph-name="plus" unicode="+" horiz-adv-x="592" 
d="M556 199h-217v-199h-88v199h-216v89h216v198h88v-198h217v-89z" />
    <glyph glyph-name="comma" unicode="," horiz-adv-x="231" 
d="M166 118v-99q0 -48 -10.5 -76.5t-36.5 -54.5l-41 -39l-63 59q31 30 37 36.5t11 15.5q11 20 11 59v99h92z" />
    <glyph glyph-name="hyphen" unicode="-" horiz-adv-x="522" 
d="M453 199h-384v89h384v-89z" />
    <glyph glyph-name="period" unicode="." horiz-adv-x="232" 
d="M116 117q62 0 62 -61q0 -33 -18 -49q-15 -15 -44 -15q-32 0 -48 19q-14 16 -14 45q0 61 62 61z" />
    <glyph glyph-name="slash" unicode="/" horiz-adv-x="512" 
d="M511 777l-415 -882h-95l415 882h95z" />
    <glyph glyph-name="zero" unicode="0" horiz-adv-x="569" 
d="M273 674q111 0 165 -50q44 -41 56 -125q4 -30 5 -52.5t1 -113.5q0 -86 -1 -112.5t-5 -55.5q-12 -84 -57 -125q-53 -48 -164 -48q-154 0 -200 99q-15 31 -21 74t-6 118v50q0 91 1 113.5t5 52.5q12 84 56 125q53 50 165 50zM273 584q-86 0 -111 -53q-16 -34 -16 -123v-75
v-80q0 -67 7 -97q9 -39 35 -55q28 -18 85 -18t85 18q26 17 35 56q7 30 7 96l-1 80q0 119 -1 136q-5 60 -30 85q-28 30 -95 30z" />
    <glyph glyph-name="one" unicode="1" horiz-adv-x="482" 
d="M310 0h-99v541l-110 -104l-63 68l182 162h90v-667z" />
    <glyph glyph-name="two" unicode="2" horiz-adv-x="554" 
d="M61 511q0 97 69 135q50 28 145 28q132 0 181 -55q41 -45 41 -143q0 -71 -28 -114q-24 -37 -75 -60q-28 -13 -109 -38q-58 -18 -76.5 -25.5t-29.5 -18.5q-11 -12 -16 -29t-5 -48v-54h338v-89h-438v162q0 74 36 115q29 32 90 53l114 35q59 19 77 39q22 24 22 72
q0 66 -27 88q-25 20 -93 20q-70 0 -95 -18q-23 -16 -23 -55h-98z" />
    <glyph glyph-name="three" unicode="3" horiz-adv-x="563" 
d="M431 350q38 -16 53.5 -49t15.5 -100q0 -125 -67 -172q-51 -37 -158 -37q-111 0 -164 37q-57 40 -57 127h99q0 -43 32 -59q27 -14 90 -14q73 0 100 25q26 24 26 84q0 51 -8 71q-9 23 -33.5 30.5t-84.5 7.5h-96v90h96q40 0 62 4.5t34 14.5q24 21 24 78q0 39 -9 58
q-10 21 -35 29.5t-76 8.5q-72 0 -99 -19q-24 -16 -24 -54h-100q0 97 73 135q52 28 150 28q124 0 172 -44q47 -42 47 -140q0 -58 -12 -87q-14 -36 -51 -53z" />
    <glyph glyph-name="four" unicode="4" horiz-adv-x="564" 
d="M521 174h-96v-174h-95v174h-289v84l290 409h94v-404h96v-89zM330 263v263l-181 -263h181z" />
    <glyph glyph-name="five" unicode="5" horiz-adv-x="570" 
d="M172 401q15 17 48.5 27t72.5 10q82 0 128 -22t67 -72q19 -47 19 -131q0 -129 -64 -179q-53 -42 -165 -42q-106 0 -157 38q-53 40 -53 126h97q0 -44 28 -60q25 -13 85 -13q52 0 79 10q27 11 39 37.5t12 78.5q0 48 -5 72t-17 39q-24 28 -95 28q-69 0 -97 -23
q-22 -17 -22 -51h-95v393h409v-90h-314v-176z" />
    <glyph glyph-name="six" unicode="6" horiz-adv-x="559" 
d="M153 396q26 23 57.5 33.5t74.5 11.5h10q113 0 162 -63q43 -55 42 -164q-1 -121 -62 -175q-54 -48 -156 -47q-84 1 -138 35q-48 30 -67 83q-22 58 -23 197q0 155 13 224q16 79 76 114q52 31 142 31q136 0 183 -77q11 -18 14.5 -34.5t5.5 -57.5h-95q-4 50 -28 65
q-22 14 -79 14q-54 0 -79 -13q-26 -15 -37.5 -52.5t-15.5 -124.5zM402 214q0 85 -27 113q-24 24 -85 24q-75 0 -106 -36q-28 -31 -29 -97q-1 -77 32 -108q29 -27 93 -28q73 -1 99 33q23 29 23 99z" />
    <glyph glyph-name="seven" unicode="7" horiz-adv-x="477" 
d="M460 582l-292 -582h-109l292 577h-333v90h442v-85z" />
    <glyph glyph-name="eight" unicode="8" horiz-adv-x="567" 
d="M438 346q38 -16 55 -53.5t17 -106.5q0 -118 -70 -162q-51 -32 -156 -32q-121 0 -173 44q-54 46 -54 150q0 67 15 103q17 41 57 57q-37 15 -51.5 49t-14.5 102q0 105 62 144q50 33 159 33q124 0 173 -44q47 -41 47 -133q0 -64 -13 -96q-15 -39 -53 -55zM283 584
q-73 0 -98 -22q-23 -21 -23 -76q0 -61 30 -80q25 -16 91 -16q75 0 99 22q23 20 23 74q0 62 -31 82q-25 16 -91 16zM284 300q-42 0 -65 -5t-36 -18q-26 -23 -26 -86q0 -69 34 -91q26 -17 93 -17q75 0 100 23q26 24 26 85q0 64 -26 86.5t-100 22.5z" />
    <glyph glyph-name="nine" unicode="9" horiz-adv-x="559" 
d="M401 271q-26 -23 -57.5 -33.5t-74.5 -11.5h-10q-113 0 -162 63q-44 55 -43 164q2 121 63 175q53 48 156 47q84 -1 138 -35q48 -30 67 -83q22 -58 22 -197q1 -155 -12 -224q-16 -79 -76 -114q-52 -31 -142 -31q-136 0 -183 77q-11 18 -14.5 34.5t-6.5 57.5h96
q4 -50 28 -65q22 -14 79 -14q54 0 79 13q26 15 37.5 52.5t15.5 124.5zM151 453q0 -85 28 -113q24 -24 85 -24q75 0 106 36q27 31 28 97q2 77 -31 108q-29 27 -93 28q-73 1 -99 -33q-24 -29 -24 -99z" />
    <glyph glyph-name="colon" unicode=":" horiz-adv-x="232" 
d="M116 494q62 0 62 -61q0 -33 -18 -49q-15 -15 -44 -15q-32 0 -48 19q-14 16 -14 45q0 61 62 61zM116 117q62 0 62 -61q0 -33 -18 -49q-15 -15 -44 -15q-32 0 -48 19q-14 16 -14 45q0 61 62 61z" />
    <glyph glyph-name="semicolon" unicode=";" horiz-adv-x="231" 
d="M118 494q62 0 62 -61q0 -33 -18 -49q-16 -15 -44 -15q-33 0 -49 19q-13 16 -13 45q0 61 62 61zM162 118v-99q0 -48 -10.5 -76.5t-36.5 -54.5l-41 -39l-63 59q31 30 37 36.5t11 15.5q11 20 11 59v99h92z" />
    <glyph glyph-name="less" unicode="&#x3c;" horiz-adv-x="587" 
d="M557 87l-34 -87l-493 201v85l492 200l35 -87l-397 -155z" />
    <glyph glyph-name="equal" unicode="=" horiz-adv-x="587" 
d="M554 291h-521v89h521v-89zM554 111h-521v89h521v-89z" />
    <glyph glyph-name="greater" unicode="&#x3e;" horiz-adv-x="587" 
d="M558 201l-493 -201l-34 87l397 157l-397 156l34 86l493 -200v-85z" />
    <glyph glyph-name="question" unicode="?" horiz-adv-x="442" 
d="M20 510q4 105 55 144q45 35 144 35q112 0 159 -51q42 -44 42 -135q0 -65 -26 -105q-23 -34 -72 -60q-4 -2 -21 -11q-37 -18 -45 -35q-7 -16 -7 -59v-45h-92v61q0 67 24 101q22 31 75 55q42 19 57.5 39.5t16.5 58.5q1 60 -27 83q-25 20 -82 20q-69 0 -91 -23
q-20 -20 -21 -73h-89zM261 49q-2 -30 -16 -43.5t-42 -13.5q-57 0 -57 57q0 30 17 46q14 13 40 13q29 0 45 -18q13 -15 13 -41z" />
    <glyph glyph-name="at" unicode="@" horiz-adv-x="768" 
d="M608 92l64 -36q-33 -51 -67 -76q-36 -26 -86.5 -37t-135.5 -10q-105 1 -167 21q-54 18 -86 53q-38 42 -52 120q-13 69 -12 190q1 150 26 222q27 78 95 109q63 29 194 31h19q118 0 179 -26q64 -26 91 -91q25 -62 26 -181q0 -98 -14 -152q-13 -48 -39 -75q-44 -44 -132 -44
h-29v28q-45 -33 -113 -34q-101 -1 -138 52q-33 47 -33 156q-1 125 43 171q38 41 127 40q69 -1 113 -35v28h72v-334q21 3 33 18q35 44 35 189q0 88 -18 133q-19 47 -66 66q-45 18 -135 18h-19q-85 -2 -130 -16q-40 -12 -64 -38q-26 -29 -36 -86q-9 -50 -10 -154v-30
q0 -121 18 -175q20 -59 73 -81q47 -19 154 -20q104 -1 148 19q38 17 72 67zM481 313q0 82 -29 111q-26 26 -87 25q-38 -1 -56 -11q-19 -11 -26.5 -38.5t-7.5 -86.5q0 -88 20 -113q18 -23 71 -23q69 0 94 33q21 30 21 103z" />
    <glyph glyph-name="A" unicode="A" horiz-adv-x="639" 
d="M630 0h-113l-65 177h-270l-64 -177h-108l258 667h105zM420 267l-102 281l-103 -281h205z" />
    <glyph glyph-name="B" unicode="B" horiz-adv-x="632" 
d="M515 344q35 -21 49.5 -55t14.5 -94q-1 -125 -74 -167q-26 -16 -67.5 -22t-118.5 -6h-239v667h233q74 0 103.5 -2t52.5 -8q58 -15 82 -59q22 -37 23 -102q1 -114 -59 -152zM179 388h134q73 0 91 1t31 7q21 10 30.5 30t9.5 56q0 61 -31 79q-14 8 -43 11t-95 3h-127v-187z
M179 92h132q71 0 91.5 1.5t35.5 7.5q22 10 32 31.5t10 60.5q0 70 -33 89q-14 8 -43 11t-93 3h-132v-204z" />
    <glyph glyph-name="C" unicode="C" horiz-adv-x="651" 
d="M590 183q0 -112 -74 -156q-58 -35 -172 -35q-130 0 -194 45q-55 39 -71 122q-11 51 -11 175t11 175q17 82 72 120q64 45 194 45q131 0 188 -46t57 -144h-101q0 38 -12 57q-14 21 -46 30t-95 9q-75 0 -109 -22q-35 -21 -46 -76q-9 -44 -9 -149t9 -149q11 -54 45 -76
q34 -21 110 -21q96 0 126 23q27 20 27 73h101z" />
    <glyph glyph-name="D" unicode="D" horiz-adv-x="673" 
d="M80 667h244q101 0 155 -21q52 -21 83 -68q27 -40 35 -99q8 -50 8 -146q0 -105 -9 -156t-33 -88q-36 -54 -98 -73q-51 -16 -141 -16h-244v667zM182 94h136q85 0 123 21t51 74q10 42 10 144q0 104 -11 148q-14 53 -53 73q-38 20 -120 20h-136v-480z" />
    <glyph glyph-name="E" unicode="E" horiz-adv-x="594" 
d="M529 0h-449v667h449v-92h-346v-187h336v-92h-336v-203h346v-93z" />
    <glyph glyph-name="F" unicode="F" horiz-adv-x="574" 
d="M519 575h-336v-187h327v-92h-327v-296h-103v667h439v-92z" />
    <glyph glyph-name="G" unicode="G" horiz-adv-x="675" 
d="M600 372v-131q0 -80 -14 -124q-20 -60 -75 -90q-62 -35 -179 -35q-121 0 -181 42q-53 37 -71 118q-12 56 -12 182q0 124 11 175q17 82 72 121q64 44 195 44t192 -45q61 -47 61 -145h-102q0 58 -40 78q-35 18 -120 18q-77 0 -112 -23q-34 -22 -45 -77q-8 -42 -8 -147
q0 -104 8 -146q11 -55 44 -77q34 -23 108 -23q80 0 116 19q34 18 45 62q7 32 7 114h-163v90h263z" />
    <glyph glyph-name="H" unicode="H" horiz-adv-x="658" 
d="M579 0h-103v295h-292v-295h-104v667h104v-279h292v279h103v-667z" />
    <glyph glyph-name="I" unicode="I" horiz-adv-x="263" 
d="M184 0h-104v667h104v-667z" />
    <glyph glyph-name="J" unicode="J" horiz-adv-x="542" 
d="M468 667v-451q0 -63 -4 -85q-13 -83 -85 -116q-49 -23 -129 -23q-114 0 -166 46t-52 145h100q0 -56 25 -76.5t93 -20.5q54 0 79 14q23 12 30 42q5 20 5 72v453h104z" />
    <glyph glyph-name="K" unicode="K" horiz-adv-x="624" 
d="M620 0h-152l-284 277v-277h-104v667h103v-279l295 279h140l-358 -331z" />
    <glyph glyph-name="L" unicode="L" horiz-adv-x="525" 
d="M519 0h-439v667h104v-574h335v-93z" />
    <glyph glyph-name="M" unicode="M" horiz-adv-x="824" 
d="M744 0h-97v525l-186 -525h-100l-185 525v-525h-96v667h136l197 -544l196 544h135v-667z" />
    <glyph glyph-name="N" unicode="N" horiz-adv-x="657" 
d="M578 0h-108l-292 500v-500h-98v667h107l293 -496v496h98v-667z" />
    <glyph glyph-name="O" unicode="O" horiz-adv-x="675" 
d="M336 674q128 0 190 -44q54 -38 71 -119q10 -51 10 -176q0 -126 -12 -182q-18 -81 -72 -119q-62 -42 -186 -42q-127 0 -189 45q-54 38 -71 121q-10 51 -10 176t10 176q16 81 70 120q62 44 189 44zM336 580q-80 0 -117 -27q-34 -25 -43 -83q-6 -36 -6 -137q0 -105 7 -143
q10 -56 43 -79q36 -24 117 -24q75 0 111 24q35 24 46 80q9 43 9 143q0 107 -9 150q-11 54 -46 75q-34 21 -112 21z" />
    <glyph glyph-name="P" unicode="P" horiz-adv-x="617" 
d="M80 667h231q94 0 136 -8q65 -13 96 -52q36 -45 36 -134q0 -90 -36 -136q-31 -40 -95 -53q-44 -9 -137 -9h-127v-275h-104v667zM433 379q43 21 43 92q0 72 -43 93q-25 11 -86 11h-38h-125v-207h125h35q65 0 89 11z" />
    <glyph glyph-name="Q" unicode="Q" horiz-adv-x="675" 
d="M537 47q-61 -55 -200 -55q-127 0 -189 45q-54 38 -71 121q-10 51 -10 176t10 176q16 81 70 120q62 44 189 44q128 0 190 -44q54 -38 71 -119q10 -51 10 -176q0 -87 -4.5 -133t-16.5 -78l80 -57l-54 -73zM359 176l55 74l80 -59q5 13 7 85q1 77 1 95q0 79 -10 118
q-13 48 -47 69q-37 22 -109 22q-76 0 -112 -24q-34 -23 -45 -78q-9 -43 -9 -145q0 -99 9 -142q11 -56 46 -80q36 -24 112 -24q80 0 114 23z" />
    <glyph glyph-name="R" unicode="R" horiz-adv-x="655" 
d="M614 0h-123l-120 182q-30 47 -42.5 62t-24.5 22q-10 6 -23 8t-48 2h-49v-276h-104v667h230q94 0 137 -9q65 -12 96 -51q36 -45 36 -134q0 -175 -157 -189zM184 370h156q53 0 74.5 3t35.5 13q28 19 28 84q0 51 -17 75q-15 21 -51 26q-22 4 -86 4h-140v-205z" />
    <glyph glyph-name="S" unicode="S" horiz-adv-x="651" 
d="M486 484q0 65 -50 84q-33 13 -116 13q-104 0 -134 -26q-12 -11 -17 -29t-5 -49q0 -56 33 -72q18 -9 72 -13l147 -5q85 -8 126 -41q52 -43 52 -140q0 -117 -77 -169q-66 -45 -193 -45q-141 0 -202 46q-62 45 -62 145h103q0 -38 14 -58q14 -21 48.5 -30t100.5 -9
q102 0 137 31q27 25 27 84q0 58 -33 75q-19 10 -75 14l-147 5q-83 7 -123 41q-52 43 -52 139q0 117 74 162q60 37 188 37q140 0 202 -45q63 -46 63 -145h-101z" />
    <glyph glyph-name="T" unicode="T" horiz-adv-x="550" 
d="M533 575h-206v-575h-103v575h-206v92h515v-92z" />
    <glyph glyph-name="U" unicode="U" horiz-adv-x="652" 
d="M577 667v-332q0 -111 -2 -143q-7 -111 -85 -161q-61 -39 -164 -39q-118 0 -181 52q-62 50 -68 148q-2 32 -2 143v332h104v-332q0 -114 4 -145q7 -56 37 -79q31 -24 106 -24q76 0 108 24q29 22 36 79q4 30 4 145v332h103z" />
    <glyph glyph-name="V" unicode="V" horiz-adv-x="607" 
d="M604 667l-251 -667h-101l-249 667h110l191 -533l191 533h109z" />
    <glyph glyph-name="W" unicode="W" horiz-adv-x="891" 
d="M855 667l-159 -667h-109l-142 541l-142 -541h-111l-156 667h103l116 -520l137 520h109l137 -520l118 520h99z" />
    <glyph glyph-name="X" unicode="X" horiz-adv-x="609" 
d="M586 0h-118l-165 263l-164 -263h-117l222 340l-216 327h118l159 -252l158 252h118l-216 -327z" />
    <glyph glyph-name="Y" unicode="Y" horiz-adv-x="589" 
d="M588 667l-241 -377v-290h-104v290l-241 377h120l175 -284l173 284h118z" />
    <glyph glyph-name="Z" unicode="Z" horiz-adv-x="619" 
d="M559 0h-499v90l375 485h-375v92h499v-90l-375 -484h375v-93z" />
    <glyph glyph-name="bracketleft" unicode="[" horiz-adv-x="338" 
d="M311 -191h-244v997h244v-87h-147v-822h147v-88z" />
    <glyph glyph-name="backslash" unicode="\" horiz-adv-x="512" 
d="M511 -105h-95l-415 882h95z" />
    <glyph glyph-name="bracketright" unicode="]" horiz-adv-x="338" 
d="M271 -191h-244v88h148v822h-148v87h244v-997z" />
    <glyph glyph-name="asciicircum" unicode="^" horiz-adv-x="592" 
d="M560 218l-89 -34l-177 371l-172 -371l-89 35l223 457h79z" />
    <glyph glyph-name="underscore" unicode="_" horiz-adv-x="534" 
d="M535 -193h-535v90h535v-90z" />
    <glyph glyph-name="grave" unicode="`" horiz-adv-x="434" 
d="M339 541h-110l-135 126h110z" />
    <glyph glyph-name="a" unicode="a" horiz-adv-x="540" 
d="M479 0h-89v44q-24 -25 -65 -38.5t-92 -13.5q-100 0 -145 39q-44 37 -44 115q0 100 71 134q44 22 133 22h134q0 40 -3 57t-14 27q-22 23 -95 23q-56 0 -81 -11q-35 -14 -35 -52h-96q0 89 74 124q51 24 144 24q123 0 170 -61q33 -43 33 -125v-308zM384 220h-140
q-60 0 -80 -16t-20 -57q0 -40 24 -56t78 -16q94 0 120 41q18 28 18 104z" />
    <glyph glyph-name="b" unicode="b" horiz-adv-x="560" 
d="M165 446q45 48 151 48q124 0 165 -80q27 -53 27 -172q0 -76 -10 -119q-15 -62 -57 -93q-48 -38 -139 -38q-95 0 -146 51v-43h-90v697h99v-251zM298 402q-53 0 -80 -13q-30 -13 -42 -46.5t-12 -99.5t12 -99q12 -34 39.5 -48t82.5 -14q46 0 70 16q22 15 31 47t9 98
q0 96 -24 128q-23 31 -86 31z" />
    <glyph glyph-name="c" unicode="c" horiz-adv-x="525" 
d="M477 144q0 -152 -204 -152q-145 0 -191 83q-20 35 -26 89q-4 33 -4 81q0 82 13 127q17 59 62 89q51 33 146 33q204 0 204 -151h-94q0 42 -41 56q-22 7 -67 7q-55 0 -82 -16q-23 -15 -32 -46t-9 -100q0 -64 7 -94q9 -37 34 -52q27 -17 82 -17q52 0 75 11q33 14 33 52h94z
" />
    <glyph glyph-name="d" unicode="d" horiz-adv-x="560" 
d="M494 0h-91v44q-24 -25 -63.5 -38.5t-87.5 -13.5q-135 0 -177 88q-13 27 -18 63.5t-5 99.5q0 81 12 128q16 60 56 90q44 33 124 33q106 0 151 -48v251h99v-697zM262 402q-46 0 -70 -16q-22 -14 -31 -46.5t-9 -97.5q0 -97 24 -129q23 -31 86 -31q53 0 80 13q30 13 42 47
t12 100t-12 99q-12 34 -39.5 47.5t-82.5 13.5z" />
    <glyph glyph-name="e" unicode="e" horiz-adv-x="541" 
d="M490 207h-338q0 -49 9 -75q10 -29 37 -43q27 -13 80 -13q51 0 78 13q34 16 35 55h93q0 -91 -78 -128q-50 -24 -131 -24q-142 0 -190 77q-33 53 -33 169q0 84 14 133q18 60 63 90q51 33 143 33q98 0 148 -37q44 -33 59 -101q11 -48 11 -149zM392 290q0 39 -5.5 60.5
t-18.5 34.5q-25 26 -96 26q-67 0 -93 -26.5t-26 -94.5h239z" />
    <glyph glyph-name="f" unicode="f" horiz-adv-x="342" 
d="M317 705v-84h-42q-50 0 -65.5 -19t-15.5 -79v-37h123v-83h-123v-403h-99v403h-78v83h78v65q0 102 66 135q38 19 111 19h45z" />
    <glyph glyph-name="g" unicode="g" horiz-adv-x="558" 
d="M492 486v-435q0 -81 -4 -108q-13 -81 -91 -115q-53 -22 -130 -22q-95 0 -147 35q-57 38 -57 114h98q0 -32 30 -48q26 -15 73 -15q117 0 127 72q2 19 2 69v15q-47 -48 -144 -48q-131 0 -173 86q-24 51 -24 161q0 82 13 128q16 59 56 87q45 32 127 32q103 0 154 -50v42h90z
M261 405q-46 0 -69 -15q-22 -15 -31 -46.5t-9 -97.5q0 -52 5.5 -80.5t17.5 -45.5q23 -29 86 -29q54 0 80 12q29 13 41 45.5t12 97.5t-12 98q-11 34 -38.5 47.5t-82.5 13.5z" />
    <glyph glyph-name="h" unicode="h" horiz-adv-x="545" 
d="M484 0h-99v256v42q0 36 -4 54t-14 30q-20 23 -80 23q-90 0 -112 -62q-7 -19 -8.5 -39t-1.5 -79v-225h-99v697h99v-248q51 45 133 45q125 0 164 -69q12 -22 17 -50.5t5 -76.5v-32v-266z" />
    <glyph glyph-name="i" unicode="i" horiz-adv-x="232" 
d="M115 674q26 0 41 -14q15 -15 15 -41t-15 -41t-41 -15t-41 15t-15 41t15 40.5t41 14.5zM165 0h-99v486h99v-486z" />
    <glyph glyph-name="j" unicode="j" horiz-adv-x="232" 
d="M-52 -190v83h39q49 0 64.5 19t15.5 79v495h99v-522q0 -102 -66 -135q-38 -19 -111 -19h-41zM116 674q26 0 41 -14q15 -15 15 -41t-15 -41t-41 -15t-41 15t-15 41t15 40.5t41 14.5z" />
    <glyph glyph-name="k" unicode="k" horiz-adv-x="518" 
d="M513 0h-131l-216 229v-229h-100v697h99v-404l217 193h129l-252 -223z" />
    <glyph glyph-name="l" unicode="l" horiz-adv-x="266" 
d="M260 78v-83h-27q-84 0 -121 28q-46 35 -46 123v551h99v-520q0 -36 2.5 -52.5t9.5 -26.5q14 -20 59 -20h24z" />
    <glyph glyph-name="m" unicode="m" horiz-adv-x="804" 
d="M743 0h-99v294q0 42 -2 57.5t-10 27.5q-16 26 -71 26q-71 0 -94 -53q-13 -31 -13 -95v-34v-223h-98v294q0 41 -2 57t-10 28q-17 26 -72 26q-71 0 -94 -54q-13 -31 -13 -96v-34v-221h-99v486h89v-44q50 52 135 52q90 0 131 -57q29 30 64 43.5t85 13.5q62 0 104 -23
q38 -21 55 -59q14 -32 14 -87v-33v-292z" />
    <glyph glyph-name="n" unicode="n" horiz-adv-x="545" 
d="M484 0h-99v256v42q0 36 -4 54t-14 30q-20 23 -80 23q-90 0 -112 -62q-7 -19 -8.5 -39t-1.5 -79v-225h-99v486h88v-43q51 51 144 51q125 0 164 -69q12 -22 17 -50.5t5 -76.5v-32v-266z" />
    <glyph glyph-name="o" unicode="o" horiz-adv-x="558" 
d="M280 494q121 0 176 -54q31 -31 43 -84q8 -41 8 -113q0 -82 -11 -126q-12 -44 -40 -70q-55 -55 -176 -55q-66 0 -109 14q-41 13 -68 41q-31 30 -43 83q-8 41 -8 113q0 82 11 126q12 44 40 71q28 28 70.5 41t106.5 13zM280 406q-58 0 -86 -17q-26 -16 -35 -53
q-7 -28 -7 -93q0 -64 7 -92q9 -37 35 -53q28 -17 86 -17t86 17q26 16 34 53q7 28 7 92q0 65 -7 94q-9 37 -35 52q-28 17 -85 17z" />
    <glyph glyph-name="p" unicode="p" horiz-adv-x="560" 
d="M157 443q54 52 154 51q84 -1 129 -32q41 -28 56 -87q12 -46 12 -133q0 -74 -12 -119q-16 -61 -57 -93q-49 -38 -138 -38q-48 0 -80.5 11.5t-55.5 37.5v-232h-99v677h91v-43zM299 404q-54 0 -81 -13q-29 -14 -41 -48t-12 -100t12 -100t39.5 -48t82.5 -14q46 0 70 16
q22 15 31 47.5t9 98.5q0 97 -24 129q-23 32 -86 32z" />
    <glyph glyph-name="q" unicode="q" horiz-adv-x="557" 
d="M491 -191h-99v232q-48 -49 -146 -49q-132 0 -172 88q-12 28 -17 64t-5 99q0 82 12 129q15 59 55 89q45 33 127 33q103 0 155 -51v43h90v-677zM260 404q-45 0 -68 -16q-22 -15 -31 -48t-9 -98q0 -97 23 -129q24 -32 85 -32q53 0 80 13q29 14 41 47.5t12 100.5
q0 66 -12 100q-12 35 -41 49q-27 13 -80 13z" />
    <glyph glyph-name="r" unicode="r" horiz-adv-x="457" 
d="M446 344h-95q0 38 -21 51q-17 11 -57 11q-49 0 -73 -23q-20 -19 -27.5 -56t-7.5 -116v-211h-99v486h89v-45q48 53 136 53q83 0 121 -41q34 -37 34 -109z" />
    <glyph glyph-name="s" unicode="s" horiz-adv-x="516" 
d="M470 343h-92q0 40 -26 55q-22 13 -74 14h-14q-58 0 -82.5 -13.5t-25.5 -44.5q-1 -46 28 -57q12 -5 63 -7l87 -5q71 -7 101 -39q33 -34 32 -106q-1 -88 -69 -123q-52 -26 -151 -25q-107 1 -154 37q-46 37 -46 115h92q0 -39 23.5 -54t83.5 -16h12q67 0 90 17q21 14 21 50
q1 42 -28 53q-16 6 -72 9q-80 3 -103 7q-53 10 -79 38q-31 33 -30 102q1 87 70 121q50 24 150 23q102 -1 148 -38q45 -36 45 -113z" />
    <glyph glyph-name="t" unicode="t" horiz-adv-x="345" 
d="M323 79v-84h-49q-86 0 -125 31q-47 36 -47 123v254h-79v83h79v181h99v-181h122v-83h-122v-225q0 -36 2.5 -52t10.5 -26q15 -21 65 -21h44z" />
    <glyph glyph-name="u" unicode="u" horiz-adv-x="545" 
d="M470 0h-88v44q-52 -52 -145 -52q-134 0 -169 83q-10 25 -13 51.5t-3 94.5v265h100v-256v-41q0 -36 4 -54.5t14 -29.5q20 -23 79 -23q90 0 112 62q7 19 8.5 38t1.5 79v225h99v-486z" />
    <glyph glyph-name="v" unicode="v" horiz-adv-x="507" 
d="M493 486l-190 -486h-99l-191 486h106l136 -369l135 369h103z" />
    <glyph glyph-name="w" unicode="w" horiz-adv-x="723" 
d="M704 486l-135 -486h-101l-104 379l-105 -379h-104l-136 486h100l93 -370l101 370h99l102 -370l93 370h97z" />
    <glyph glyph-name="x" unicode="x" horiz-adv-x="515" 
d="M501 0h-118l-126 182l-129 -182h-113l184 248l-177 238h118l119 -172l123 172h114l-179 -237z" />
    <glyph glyph-name="y" unicode="y" horiz-adv-x="545" 
d="M156 -45q2 -64 101 -64q82 0 104 47q7 16 10 36t5 67q-46 -49 -139 -49q-134 0 -169 83q-10 25 -13 51.5t-3 94.5v265h100v-256v-41q0 -36 4 -54.5t14 -29.5q20 -23 79 -23q90 0 112 62q7 19 8.5 38t1.5 79v225h99v-446q0 -39 -2 -53q-8 -93 -59 -137q-52 -44 -149 -44
q-93 0 -146 35q-56 38 -56 114h98z" />
    <glyph glyph-name="z" unicode="z" horiz-adv-x="493" 
d="M447 0h-402v85l278 318h-278v83h402v-84l-276 -316h276v-86z" />
    <glyph glyph-name="braceleft" unicode="{" horiz-adv-x="381" 
d="M350 -191q-78 2 -120 21q-44 20 -63 65q-18 42 -18 121v160q0 16 -8.5 30.5t-30.5 34.5q-24 23 -33.5 39.5t-10.5 36.5q0 19 10 36t34 39q22 21 30.5 35t8.5 29v163q0 78 18 120q19 45 63 64q42 19 120 22v-81q-50 -2 -71 -10q-24 -10 -32.5 -34t-8.5 -79v-177
q0 -30 -11.5 -51t-50.5 -56l-7 -7q-8 -8 -8 -14q0 -1 1 -3q1 -4 6 -9q3 -4 20 -19q31 -28 40.5 -47t9.5 -49v-175q0 -53 8 -77q9 -25 31 -35t73 -11v-82z" />
    <glyph glyph-name="bar" unicode="|" horiz-adv-x="287" 
d="M192 -191h-97v858h97v-858z" />
    <glyph glyph-name="braceright" unicode="}" horiz-adv-x="381" 
d="M35 -191v82q49 1 71 10q24 10 32.5 34t8.5 79v175q0 30 10 49t40 47q17 15 21 19q4 5 6 9v3q0 6 -7 14q-4 3 -8 7q-38 35 -50 56t-12 51v177q0 53 -8 77q-8 25 -30 34.5t-74 11.5v81q79 -3 121 -22q44 -19 62 -64q18 -42 18 -120v-163q0 -15 8.5 -29t30.5 -35
q24 -22 34 -39t10 -36q0 -20 -9.5 -36.5t-34.5 -39.5q-22 -20 -30.5 -34.5t-8.5 -30.5v-160q0 -79 -18 -121q-18 -45 -62 -65q-42 -19 -121 -21z" />
    <glyph glyph-name="asciitilde" unicode="~" horiz-adv-x="591" 
d="M559 257q-9 -8 -42 -32q-45 -32 -77 -46t-62 -14q-37 0 -72 21q-45 27 -63.5 35t-35.5 8q-31 0 -80 -37q-25 -17 -37 -26l-58 63q10 9 42 30q47 33 78.5 46.5t61.5 13.5q36 0 71 -21q45 -26 63 -34t35 -8q32 0 81 37q25 18 37 27z" />
    <glyph glyph-name="Adieresis" unicode="&#xc4;" horiz-adv-x="639" 
d="M630 0h-113l-65 177h-270l-64 -177h-108l258 667h105zM420 267l-102 281l-103 -281h205zM430 863q54 0 54 -53q0 -54 -54 -54q-53 0 -53 54q0 28 12.5 40.5t40.5 12.5zM214 863q55 0 55 -53q0 -54 -55 -54q-53 0 -53 54q0 28 12.5 40.5t40.5 12.5z" />
    <glyph glyph-name="Aring" unicode="&#xc5;" horiz-adv-x="639" 
d="M629 0h-112l-66 177h-269l-64 -177h-108l243 632q-54 19 -54 107q0 65 32 88q27 20 88 20q70 0 96 -27q25 -25 25 -82q0 -89 -55 -107zM319 792q-37 0 -48 -14q-9 -12 -9 -46q0 -36 13 -46q11 -9 45 -9q38 0 48 12q10 11 10 43q0 36 -11.5 48t-47.5 12zM419 266l-102 282
l-102 -282h204z" />
    <glyph glyph-name="Ccedilla" unicode="&#xc7;" horiz-adv-x="651" 
d="M590 183q0 -107 -66 -151q-52 -35 -156 -39v-32q35 -2 51 -23q14 -18 14 -48q0 -43 -22 -62q-21 -19 -64 -19q-46 0 -67 19q-19 18 -19 53h51q0 -15 7.5 -20.5t27.5 -5.5t26.5 7t6.5 26q0 31 -36 32l-29 1v72q-116 5 -173 51q-49 40 -65 120q-9 51 -9 170q0 124 11 175
q17 82 72 120q64 45 194 45q131 0 189 -46q56 -46 56 -144h-101q0 38 -12 57q-13 21 -45.5 30t-95.5 9q-75 0 -109 -22q-35 -21 -46 -76q-9 -44 -9 -149t9 -149q11 -54 45 -76q34 -21 110 -21q96 0 127 23q26 20 26 73h101z" />
    <glyph glyph-name="Eacute" unicode="&#xc9;" horiz-adv-x="594" 
d="M529 0h-449v667h449v-92h-346v-187h336v-92h-336v-203h346v-93zM437 862l-136 -126h-111l136 126h111z" />
    <glyph glyph-name="Ntilde" unicode="&#xd1;" horiz-adv-x="657" 
d="M578 0h-108l-292 500v-500h-98v667h107l293 -496v496h98v-667zM531 797l-39 -20q-65 -33 -105 -33q-31 0 -58 17l-32 20q-14 7 -27 7q-18 0 -45 -14l-59 -29l-35 64l73 37q37 16 67 16q33 0 63 -18q31 -19 32 -19q14 -7 27 -7q20 0 48 14l56 29z" />
    <glyph glyph-name="Odieresis" unicode="&#xd6;" horiz-adv-x="675" 
d="M336 674q128 0 190 -44q54 -38 71 -119q10 -51 10 -176q0 -126 -12 -182q-18 -81 -72 -119q-62 -42 -186 -42q-127 0 -189 45q-54 38 -71 121q-10 51 -10 176t10 176q16 81 70 120q62 44 189 44zM336 580q-80 0 -117 -27q-34 -25 -43 -83q-6 -36 -6 -137q0 -105 7 -143
q10 -56 43 -79q36 -24 117 -24q75 0 111 24q35 24 46 80q9 43 9 143q0 107 -9 150q-11 54 -46 75q-34 21 -112 21zM448 863q54 0 54 -53q0 -54 -54 -54q-53 0 -53 54q0 28 12.5 40.5t40.5 12.5zM232 863q55 0 55 -53q0 -54 -55 -54q-53 0 -53 54q0 28 12.5 40.5t40.5 12.5z
" />
    <glyph glyph-name="Udieresis" unicode="&#xdc;" horiz-adv-x="652" 
d="M577 667v-332q0 -111 -2 -143q-7 -111 -85 -161q-61 -39 -164 -39q-118 0 -181 52q-62 50 -68 148q-2 32 -2 143v332h104v-332q0 -114 4 -145q7 -56 37 -79q31 -24 106 -24q76 0 108 24q29 22 36 79q4 30 4 145v332h103zM430 863q54 0 54 -53q0 -54 -54 -54q-53 0 -53 54
q0 28 12.5 40.5t40.5 12.5zM214 863q55 0 55 -53q0 -54 -55 -54q-53 0 -53 54q0 28 12.5 40.5t40.5 12.5z" />
    <glyph glyph-name="aacute" unicode="&#xe1;" horiz-adv-x="540" 
d="M479 0h-89v44q-24 -25 -65 -38.5t-92 -13.5q-100 0 -145 39q-44 37 -44 115q0 100 71 134q44 22 133 22h134q0 40 -3 57t-14 27q-22 23 -95 23q-56 0 -81 -11q-35 -14 -35 -52h-96q0 89 74 124q51 24 144 24q123 0 170 -61q33 -43 33 -125v-308zM384 220h-140
q-60 0 -80 -16t-20 -57q0 -40 24 -56t78 -16q94 0 120 41q18 28 18 104zM413 667l-136 -126h-111l136 126h111z" />
    <glyph glyph-name="agrave" unicode="&#xe0;" horiz-adv-x="540" 
d="M479 0h-89v44q-24 -25 -65 -38.5t-92 -13.5q-100 0 -145 39q-44 37 -44 115q0 100 71 134q44 22 133 22h134q0 40 -3 57t-14 27q-22 23 -95 23q-56 0 -81 -11q-35 -14 -35 -52h-96q0 89 74 124q51 24 144 24q123 0 170 -61q33 -43 33 -125v-308zM384 220h-140
q-60 0 -80 -16t-20 -57q0 -40 24 -56t78 -16q94 0 120 41q18 28 18 104zM385 541h-110l-135 126h110z" />
    <glyph glyph-name="acircumflex" unicode="&#xe2;" horiz-adv-x="540" 
d="M479 0h-89v44q-24 -25 -65 -38.5t-92 -13.5q-100 0 -145 39q-44 37 -44 115q0 100 71 134q44 22 133 22h134q0 40 -3 57t-14 27q-22 23 -95 23q-56 0 -81 -11q-35 -14 -35 -52h-96q0 89 74 124q51 24 144 24q123 0 170 -61q33 -43 33 -125v-308zM384 220h-140
q-60 0 -80 -16t-20 -57q0 -40 24 -56t78 -16q94 0 120 41q18 28 18 104zM451 540h-101l-75 73l-74 -73h-103l130 127h93z" />
    <glyph glyph-name="adieresis" unicode="&#xe4;" horiz-adv-x="540" 
d="M479 0h-89v44q-24 -25 -65 -38.5t-92 -13.5q-100 0 -145 39q-44 37 -44 115q0 100 71 134q44 22 133 22h134q0 40 -3 57t-14 27q-22 23 -95 23q-56 0 -81 -11q-35 -14 -35 -52h-96q0 89 74 124q51 24 144 24q123 0 170 -61q33 -43 33 -125v-308zM384 220h-140
q-60 0 -80 -16t-20 -57q0 -40 24 -56t78 -16q94 0 120 41q18 28 18 104zM381 667q54 0 54 -53q0 -54 -54 -54q-53 0 -53 54q0 28 12.5 40.5t40.5 12.5zM165 667q55 0 55 -53q0 -54 -55 -54q-53 0 -53 54q0 28 12.5 40.5t40.5 12.5z" />
    <glyph glyph-name="atilde" unicode="&#xe3;" horiz-adv-x="540" 
d="M479 0h-89v44q-24 -25 -65 -38.5t-92 -13.5q-100 0 -145 39q-44 37 -44 115q0 100 71 134q44 22 133 22h134q0 40 -3 57t-14 27q-22 23 -95 23q-56 0 -81 -11q-35 -14 -35 -52h-96q0 89 74 124q51 24 144 24q123 0 170 -61q33 -43 33 -125v-308zM384 220h-140
q-60 0 -80 -16t-20 -57q0 -40 24 -56t78 -16q94 0 120 41q18 28 18 104zM474 603l-39 -20q-65 -33 -105 -33q-31 0 -58 17l-32 20q-14 7 -27 7q-18 0 -45 -14l-59 -29l-35 64l73 37q37 16 67 16q33 0 63 -18l32 -20q14 -7 27 -7q20 0 48 15l56 29z" />
    <glyph glyph-name="aring" unicode="&#xe5;" horiz-adv-x="540" 
d="M479 0h-90v44q-24 -25 -65 -38.5t-91 -13.5q-100 0 -145 39q-44 37 -44 115q0 100 70 134q45 22 134 22h134q0 40 -3.5 57t-14.5 27q-22 23 -95 23q-56 0 -81 -11q-34 -14 -34 -52h-96q0 110 112 138q-17 18 -17 75q0 64 32 88q28 20 89 20q70 0 97 -27q24 -24 24 -81
t-19 -76q54 -18 78.5 -59t24.5 -116v-308zM273 612q-37 0 -48 -15q-9 -13 -9 -47q0 -38 13 -48q12 -10 46 -10q37 0 48 14q9 11 9 44q0 37 -12 49.5t-47 12.5zM383 220h-139q-60 0 -80 -16t-20 -57q0 -40 24 -56t78 -16q93 0 119 41q18 28 18 104z" />
    <glyph glyph-name="ccedilla" unicode="&#xe7;" horiz-adv-x="525" 
d="M477 144q0 -142 -176 -151v-32q34 -2 51 -23q14 -18 14 -48q0 -81 -86 -81q-47 0 -68 19q-18 18 -18 53h50q0 -15 7.5 -20.5t28.5 -5.5q19 0 25.5 7t6.5 26q0 30 -35 32q-8 1 -30 1v72q-126 6 -167 86q-28 53 -28 166q0 82 13 127q17 59 62 89q51 33 146 33
q204 0 204 -151h-94q0 42 -41 56q-22 7 -67 7q-55 0 -82 -16q-23 -15 -32 -46t-9 -100q0 -64 7 -94q9 -37 34 -52q27 -17 82 -17q52 0 75 11q33 14 33 52h94z" />
    <glyph glyph-name="eacute" unicode="&#xe9;" horiz-adv-x="541" 
d="M490 207h-338q0 -49 9 -75q10 -29 37 -43q27 -13 80 -13q51 0 78 13q34 16 35 55h93q0 -91 -78 -128q-50 -24 -131 -24q-142 0 -190 77q-33 53 -33 169q0 84 14 133q18 60 63 90q51 33 143 33q98 0 148 -37q44 -33 59 -101q11 -48 11 -149zM392 290q0 39 -5.5 60.5
t-18.5 34.5q-25 26 -96 26q-67 0 -93 -26.5t-26 -94.5h239zM408 667l-136 -126h-111l136 126h111z" />
    <glyph glyph-name="egrave" unicode="&#xe8;" horiz-adv-x="541" 
d="M490 207h-338q0 -49 9 -75q10 -29 37 -43q27 -13 80 -13q51 0 78 13q34 16 35 55h93q0 -91 -78 -128q-50 -24 -131 -24q-142 0 -190 77q-33 53 -33 169q0 84 14 133q18 60 63 90q51 33 143 33q98 0 148 -37q44 -33 59 -101q11 -48 11 -149zM392 290q0 39 -5.5 60.5
t-18.5 34.5q-25 26 -96 26q-67 0 -93 -26.5t-26 -94.5h239zM385 541h-110l-135 126h110z" />
    <glyph glyph-name="ecircumflex" unicode="&#xea;" horiz-adv-x="541" 
d="M490 207h-338q0 -49 9 -75q10 -29 37 -43q27 -13 80 -13q51 0 78 13q34 16 35 55h93q0 -91 -78 -128q-50 -24 -131 -24q-142 0 -190 77q-33 53 -33 169q0 84 14 133q18 60 63 90q51 33 143 33q98 0 148 -37q44 -33 59 -101q11 -48 11 -149zM392 290q0 39 -5.5 60.5
t-18.5 34.5q-25 26 -96 26q-67 0 -93 -26.5t-26 -94.5h239zM450 540h-101l-75 73l-74 -73h-103l130 127h93z" />
    <glyph glyph-name="edieresis" unicode="&#xeb;" horiz-adv-x="541" 
d="M490 207h-338q0 -49 9 -75q10 -29 37 -43q27 -13 80 -13q51 0 78 13q34 16 35 55h93q0 -91 -78 -128q-50 -24 -131 -24q-142 0 -190 77q-33 53 -33 169q0 84 14 133q18 60 63 90q51 33 143 33q98 0 148 -37q44 -33 59 -101q11 -48 11 -149zM392 290q0 39 -5.5 60.5
t-18.5 34.5q-25 26 -96 26q-67 0 -93 -26.5t-26 -94.5h239zM381 667q54 0 54 -53q0 -54 -54 -54q-53 0 -53 54q0 28 12.5 40.5t40.5 12.5zM165 667q55 0 55 -53q0 -54 -55 -54q-53 0 -53 54q0 28 12.5 40.5t40.5 12.5z" />
    <glyph glyph-name="iacute" unicode="&#xed;" horiz-adv-x="230" 
d="M166 0h-99v486h99v-486zM251 667l-136 -126h-111l136 126h111z" />
    <glyph glyph-name="igrave" unicode="&#xec;" horiz-adv-x="230" 
d="M166 0h-99v486h99v-486zM240 541h-110l-135 126h110z" />
    <glyph glyph-name="icircumflex" unicode="&#xee;" horiz-adv-x="230" 
d="M166 0h-99v486h99v-486zM293 540h-101l-75 73l-74 -73h-103l130 127h93z" />
    <glyph glyph-name="idieresis" unicode="&#xef;" horiz-adv-x="230" 
d="M166 0h-99v486h99v-486zM224 667q54 0 54 -53q0 -54 -54 -54q-53 0 -53 54q0 28 12.5 40.5t40.5 12.5zM8 667q55 0 55 -53q0 -54 -55 -54q-53 0 -53 54q0 28 12.5 40.5t40.5 12.5z" />
    <glyph glyph-name="ntilde" unicode="&#xf1;" horiz-adv-x="545" 
d="M484 0h-99v256v42q0 36 -4 54t-14 30q-20 23 -80 23q-90 0 -112 -62q-7 -19 -8.5 -39t-1.5 -79v-225h-99v486h88v-43q51 51 144 51q125 0 164 -69q12 -22 17 -50.5t5 -76.5v-32v-266zM474 603l-39 -20q-65 -33 -105 -33q-31 0 -58 17l-32 20q-14 7 -27 7q-18 0 -45 -14
l-59 -29l-35 64l73 37q37 16 67 16q33 0 63 -18l32 -20q14 -7 27 -7q20 0 48 15l56 29z" />
    <glyph glyph-name="oacute" unicode="&#xf3;" horiz-adv-x="558" 
d="M280 494q121 0 176 -54q31 -31 43 -84q8 -41 8 -113q0 -82 -11 -126q-12 -44 -40 -70q-55 -55 -176 -55q-66 0 -109 14q-41 13 -68 41q-31 30 -43 83q-8 41 -8 113q0 82 11 126q12 44 40 71q28 28 70.5 41t106.5 13zM280 406q-58 0 -86 -17q-26 -16 -35 -53
q-7 -28 -7 -93q0 -64 7 -92q9 -37 35 -53q28 -17 86 -17t86 17q26 16 34 53q7 28 7 92q0 65 -7 94q-9 37 -35 52q-28 17 -85 17zM414 667l-136 -126h-111l136 126h111z" />
    <glyph glyph-name="ograve" unicode="&#xf2;" horiz-adv-x="558" 
d="M280 494q121 0 176 -54q31 -31 43 -84q8 -41 8 -113q0 -82 -11 -126q-12 -44 -40 -70q-55 -55 -176 -55q-66 0 -109 14q-41 13 -68 41q-31 30 -43 83q-8 41 -8 113q0 82 11 126q12 44 40 71q28 28 70.5 41t106.5 13zM280 406q-58 0 -86 -17q-26 -16 -35 -53
q-7 -28 -7 -93q0 -64 7 -92q9 -37 35 -53q28 -17 86 -17t86 17q26 16 34 53q7 28 7 92q0 65 -7 94q-9 37 -35 52q-28 17 -85 17zM414 541h-110l-135 126h110z" />
    <glyph glyph-name="ocircumflex" unicode="&#xf4;" horiz-adv-x="558" 
d="M280 494q121 0 176 -54q31 -31 43 -84q8 -41 8 -113q0 -82 -11 -126q-12 -44 -40 -70q-55 -55 -176 -55q-66 0 -109 14q-41 13 -68 41q-31 30 -43 83q-8 41 -8 113q0 82 11 126q12 44 40 71q28 28 70.5 41t106.5 13zM280 406q-58 0 -86 -17q-26 -16 -35 -53
q-7 -28 -7 -93q0 -64 7 -92q9 -37 35 -53q28 -17 86 -17t86 17q26 16 34 53q7 28 7 92q0 65 -7 94q-9 37 -35 52q-28 17 -85 17zM459 540h-101l-75 73l-74 -73h-103l130 127h93z" />
    <glyph glyph-name="odieresis" unicode="&#xf6;" horiz-adv-x="558" 
d="M280 494q121 0 176 -54q31 -31 43 -84q8 -41 8 -113q0 -82 -11 -126q-12 -44 -40 -70q-55 -55 -176 -55q-66 0 -109 14q-41 13 -68 41q-31 30 -43 83q-8 41 -8 113q0 82 11 126q12 44 40 71q28 28 70.5 41t106.5 13zM280 406q-58 0 -86 -17q-26 -16 -35 -53
q-7 -28 -7 -93q0 -64 7 -92q9 -37 35 -53q28 -17 86 -17t86 17q26 16 34 53q7 28 7 92q0 65 -7 94q-9 37 -35 52q-28 17 -85 17zM391 667q54 0 54 -53q0 -54 -54 -54q-53 0 -53 54q0 28 12.5 40.5t40.5 12.5zM175 667q55 0 55 -53q0 -54 -55 -54q-53 0 -53 54
q0 28 12.5 40.5t40.5 12.5z" />
    <glyph glyph-name="otilde" unicode="&#xf5;" horiz-adv-x="558" 
d="M280 494q121 0 176 -54q31 -31 43 -84q8 -41 8 -113q0 -82 -11 -126q-12 -44 -40 -70q-55 -55 -176 -55q-66 0 -109 14q-41 13 -68 41q-31 30 -43 83q-8 41 -8 113q0 82 11 126q12 44 40 71q28 28 70.5 41t106.5 13zM280 406q-58 0 -86 -17q-26 -16 -35 -53
q-7 -28 -7 -93q0 -64 7 -92q9 -37 35 -53q28 -17 86 -17t86 17q26 16 34 53q7 28 7 92q0 65 -7 94q-9 37 -35 52q-28 17 -85 17zM483 603l-39 -20q-65 -33 -105 -33q-31 0 -58 17l-32 20q-14 7 -27 7q-18 0 -45 -14l-59 -29l-35 64l73 37q37 16 67 16q33 0 63 -18l32 -20
q14 -7 27 -7q20 0 48 15l56 29z" />
    <glyph glyph-name="uacute" unicode="&#xfa;" horiz-adv-x="545" 
d="M470 0h-88v44q-52 -52 -145 -52q-134 0 -169 83q-10 25 -13 51.5t-3 94.5v265h100v-256v-41q0 -36 4 -54.5t14 -29.5q20 -23 79 -23q90 0 112 62q7 19 8.5 38t1.5 79v225h99v-486zM415 667l-136 -126h-111l136 126h111z" />
    <glyph glyph-name="ugrave" unicode="&#xf9;" horiz-adv-x="545" 
d="M470 0h-88v44q-52 -52 -145 -52q-134 0 -169 83q-10 25 -13 51.5t-3 94.5v265h100v-256v-41q0 -36 4 -54.5t14 -29.5q20 -23 79 -23q90 0 112 62q7 19 8.5 38t1.5 79v225h99v-486zM398 541h-110l-135 126h110z" />
    <glyph glyph-name="ucircumflex" unicode="&#xfb;" horiz-adv-x="545" 
d="M470 0h-88v44q-52 -52 -145 -52q-134 0 -169 83q-10 25 -13 51.5t-3 94.5v265h100v-256v-41q0 -36 4 -54.5t14 -29.5q20 -23 79 -23q90 0 112 62q7 19 8.5 38t1.5 79v225h99v-486zM449 540h-101l-75 73l-74 -73h-103l130 127h93z" />
    <glyph glyph-name="udieresis" unicode="&#xfc;" horiz-adv-x="545" 
d="M470 0h-88v44q-52 -52 -145 -52q-134 0 -169 83q-10 25 -13 51.5t-3 94.5v265h100v-256v-41q0 -36 4 -54.5t14 -29.5q20 -23 79 -23q90 0 112 62q7 19 8.5 38t1.5 79v225h99v-486zM382 667q54 0 54 -53q0 -54 -54 -54q-53 0 -53 54q0 28 12.5 40.5t40.5 12.5zM166 667
q55 0 55 -53q0 -54 -55 -54q-53 0 -53 54q0 28 12.5 40.5t40.5 12.5z" />
    <glyph glyph-name="dagger" unicode="&#x2020;" horiz-adv-x="571" 
d="M481 403h-147v-494h-96v494h-148v83h148v181h96v-181h147v-83z" />
    <glyph glyph-name="degree" unicode="&#xb0;" horiz-adv-x="524" 
d="M261 671q83 0 119 -40q31 -36 31 -110q0 -85 -41 -122q-36 -32 -108 -32q-83 0 -119 42q-31 37 -31 112q0 85 41 120q35 30 108 30zM261 604q-49 0 -66 -22q-13 -18 -13 -63q0 -51 18 -69q17 -16 61 -16q50 0 67 22q14 18 14 63q0 51 -19 69q-17 16 -62 16z" />
    <glyph glyph-name="cent" unicode="&#xa2;" horiz-adv-x="525" 
d="M503 150q-4 -83 -47 -117q-39 -31 -124 -39v-89h-85v89q-73 9 -111 34q-40 26 -57 78q-16 50 -17 143q0 88 16 138q17 52 58 79q39 25 111 34v84h85v-84q96 -9 134 -49q33 -35 37 -108h-90q-2 39 -22 54q-17 13 -59 17v-335q45 5 62 20t19 51h90zM247 413q-38 -6 -56 -21
q-19 -15 -27 -47.5t-8 -96.5q0 -99 21 -131q18 -29 70 -37v333z" />
    <glyph glyph-name="sterling" unicode="&#xa3;" horiz-adv-x="585" 
d="M548 0h-498v90h64v205h-64v89h64v74q0 69 5 93q9 43 40 71q54 52 169 52q99 0 145 -27q66 -39 66 -136h-95q0 41 -23 57t-83 16q-57 0 -83 -12q-24 -10 -32.5 -33.5t-8.5 -78.5v-76h282v-89h-282v-205h334v-90z" />
    <glyph glyph-name="section" unicode="&#xa7;" horiz-adv-x="581" 
d="M445 170q61 -29 61 -121q0 -97 -72 -134q-48 -24 -136 -25q-118 -1 -169 38t-51 126h99q0 -44 27 -60q27 -15 94 -14q61 0 83 16q23 17 23 60q0 52 -37 63q-18 5 -79 5q-64 0 -95 7q-40 8 -68 30q-48 39 -48 119q0 89 60 115q-61 29 -61 121q0 96 72 133q47 24 136 25
q117 1 168 -37q52 -39 52 -126h-99q0 44 -28 59q-26 15 -93 14q-61 0 -83 -16q-23 -17 -23 -60q0 -51 37 -62q17 -6 79 -6q64 0 95 -6q40 -8 68 -31q48 -38 48 -119q0 -88 -60 -114zM289 353q-60 0 -82 -13q-29 -16 -29 -61q0 -47 35 -60q22 -8 79 -8q61 0 83 13
q28 16 28 60q0 48 -35 61q-21 8 -79 8z" />
    <glyph glyph-name="bullet" unicode="&#x2022;" horiz-adv-x="495" 
d="M248 449q64 0 91 -31q23 -28 23 -84q0 -64 -31 -91q-27 -23 -83 -23q-64 0 -91 31q-24 27 -24 83q0 64 31 91q28 24 84 24z" />
    <glyph glyph-name="paragraph" unicode="&#xb6;" horiz-adv-x="605" 
d="M476 0h-89v578h-59v-578h-89v285q-77 0 -118 11q-52 14 -76 53q-27 42 -28 122q0 82 20 121q21 43 77 59q52 16 160 16h202v-667zM239 374v204q-54 0 -75 -3t-36 -12q-31 -20 -31 -85q0 -53 17 -76q14 -20 48 -25q16 -3 77 -3z" />
    <glyph glyph-name="germandbls" unicode="&#xdf;" horiz-adv-x="568" 
d="M429 365q40 -16 58.5 -56.5t18.5 -112.5q0 -122 -73 -166q-51 -30 -153 -30h-54v89h56q78 0 103 25q22 23 22 85q0 52 -11 76q-11 25 -37.5 34.5t-84.5 9.5h-48v90h48q40 0 61.5 4t35.5 15q31 23 31 85q0 41 -9 61q-9 22 -34.5 31t-76.5 9q-82 0 -104 -40
q-8 -14 -10.5 -33.5t-2.5 -60.5v-480h-99v477v29q0 52 8 81q10 38 36 63q56 54 172 54q119 0 170 -47q47 -44 47 -137q0 -125 -70 -155z" />
    <glyph glyph-name="registered" unicode="&#xae;" horiz-adv-x="525" 
d="M369 308h-53v83q0 23 -7 29t-35 6h-56v-118h-55v281h100q65 0 87 -19q19 -16 19 -59q0 -21 -5.5 -34t-19.5 -24q14 -10 19.5 -24t5.5 -41v-80zM217 475h45h11q27 0 34.5 5.5t7.5 26.5q1 16 -1 21.5t-8 8.5q-8 4 -47 4h-42v-66zM492 446q0 -91 -20 -139q-21 -50 -71 -72
q-48 -20 -138 -20q-92 0 -139 20q-50 21 -71 71q-20 48 -21 141q0 93 19 139q20 50 71 70q47 19 141 19q93 0 140 -19q50 -20 70 -70q19 -47 19 -140zM437 447q0 75 -13 110q-13 37 -48.5 51t-112.5 14q-76 0 -111 -13q-37 -14 -51 -49.5t-14 -114.5q1 -76 14 -111
q14 -37 49.5 -51.5t112.5 -14.5q74 0 109 14q37 15 51 51t14 114z" />
    <glyph glyph-name="copyright" unicode="&#xa9;" horiz-adv-x="806" 
d="M403 674q135 0 205 -29q73 -31 103 -105q28 -70 28 -206q0 -134 -29 -205q-30 -75 -103 -106q-70 -31 -204 -31q-135 0 -206 31q-72 32 -101 107q-28 70 -28 206q0 137 28 206q29 73 102 103q69 29 205 29zM403 609q-116 0 -170 -22q-56 -24 -77 -84q-19 -53 -19 -170
q0 -113 20 -167q21 -60 78 -84q55 -24 168 -24t168 24q57 25 79 87q20 55 20 168q0 114 -20 168q-22 59 -80 82q-54 22 -167 22zM595 256q0 -89 -59 -123q-43 -25 -131 -25q-83 0 -127 23t-61 74q-16 46 -16 129t16 128q18 51 61 74q45 24 127 24q101 0 145 -34
q45 -35 45 -114h-70q0 48 -25.5 65.5t-94.5 17.5q-60 0 -89 -17q-27 -16 -36 -52q-7 -29 -7 -92t7 -91q9 -37 36 -53q29 -17 89 -17q67 0 91 16q29 18 29 67h70z" />
    <glyph glyph-name="trademark" unicode="&#x2122;" horiz-adv-x="845" 
d="M793 233h-68v308l-110 -308h-70l-106 307v-307h-67v434h88l123 -340l124 340h86v-434zM341 602h-125v-369h-73v369h-126v65h324v-65z" />
    <glyph glyph-name="acute" unicode="&#xb4;" horiz-adv-x="431" 
d="M339 667l-136 -126h-111l136 126h111z" />
    <glyph glyph-name="dieresis" unicode="&#xa8;" horiz-adv-x="431" 
d="M323 667q54 0 54 -53q0 -54 -54 -54q-53 0 -53 54q0 28 12.5 40.5t40.5 12.5zM107 667q55 0 55 -53q0 -54 -55 -54q-53 0 -53 54q0 28 12.5 40.5t40.5 12.5z" />
    <glyph glyph-name="notequal" unicode="&#x2260;" horiz-adv-x="592" 
d="M556 113h-333l-113 -113l-58 58l55 55h-72v87h156l93 91h-249v87h336l112 112l58 -58l-55 -54h70v-87h-155l-92 -91h247v-87z" />
    <glyph glyph-name="AE" unicode="&#xc6;" horiz-adv-x="940" 
d="M875 0h-408v175h-231l-114 -175h-120l446 667h427v-92h-306v-187h296v-92h-296v-203h306v-93zM467 266v261l-171 -261h171z" />
    <glyph glyph-name="Oslash" unicode="&#xd8;" horiz-adv-x="674" 
d="M484 788l-29 -126q59 -20 89 -49q32 -30 45 -79.5t13 -139.5v-61q-1 -93 -7.5 -144.5t-21.5 -85.5q-50 -113 -227 -113h-15l-33 1l-30 -135l-86 18l30 131q-63 21 -93 52q-30 32 -42 92.5t-11 186.5q0 93 6 144t21 84q27 62 93 89q58 24 150 23h32l30 133zM433 568
l-112 -483q4 -1 11 -1q60 0 91 10.5t48 36.5q16 25 22.5 67t7.5 134v28q0 76 -5.5 113.5t-20.5 60.5t-42 34zM234 99l111 484h-10q-61 0 -92 -10.5t-49 -37.5q-16 -25 -21.5 -66.5t-6.5 -133.5q-1 -90 4.5 -134t20.5 -67q15 -24 43 -35z" />
    <glyph glyph-name="glyph146" unicode="&#x221e;" horiz-adv-x="567" 
d="M283 291q32 41 63 59q31 17 68 17q62 0 93 -30q33 -32 33 -99q0 -78 -44 -108q-29 -20 -83 -20q-66 0 -131 79q-66 -79 -129 -79q-67 0 -95 28q-32 30 -32 100q0 77 39 107q29 22 87 22q42 0 71.5 -17t59.5 -59zM238 239q-25 33 -44 46t-41 13q-27 0 -38 -13
q-11 -14 -11 -47q0 -32 11.5 -45.5t37.5 -13.5q34 0 85 60zM327 240q51 -61 86 -61q26 0 37.5 13.5t11.5 45.5q0 33 -11 46.5t-38 13.5q-23 0 -43 -13.5t-43 -44.5z" />
    <glyph glyph-name="plusminus" unicode="&#xb1;" horiz-adv-x="592" 
d="M557 314h-218v-172h-88v172h-216v90h216v172h88v-172h218v-90zM559 0h-527v90h527v-90z" />
    <glyph glyph-name="lessequal" unicode="&#x2264;" horiz-adv-x="592" 
d="M559 230l-34 -87l-490 178v76l489 179l35 -87l-380 -130zM559 0h-527v90h527v-90z" />
    <glyph glyph-name="greaterequal" unicode="&#x2265;" horiz-adv-x="592" 
d="M557 321l-491 -178l-33 87l380 129l-380 130l34 87l490 -179v-76zM559 0h-527v90h527v-90z" />
    <glyph glyph-name="yen" unicode="&#xa5;" horiz-adv-x="605" 
d="M588 667l-148 -237h73v-82h-124l-35 -56h159v-82h-161v-210h-100v210h-161v82h159l-35 56h-125v82h75l-148 237h114l171 -282l172 282h114z" />
    <glyph glyph-name="mu" unicode="&#xb5;" horiz-adv-x="551" 
d="M484 0h-90v42q-50 -50 -138 -50q-26 0 -53 6.5t-40 16.5v-206h-97v677h99v-256v-35q0 -40 3.5 -58.5t13.5 -30.5q20 -23 81 -23q90 0 112 61q7 19 8.5 38t1.5 79v225h99v-486z" />
    <glyph glyph-name="partialdiff" unicode="&#x2202;" horiz-adv-x="552" 
d="M106 677l62 58q173 -173 236 -240q60 -63 79 -119q18 -50 18 -132q1 -79 -10.5 -123t-39.5 -73t-70 -42.5t-105 -13.5q-67 0 -111 15q-38 14 -65 41q-27 28 -37.5 70t-10.5 127q0 135 42 187q38 47 127 56q14 2 22 2q36 0 62 -7zM408 245q0 100 -36 136q-32 32 -108 31
q-49 0 -74 -14q-25 -15 -36 -49.5t-12 -104.5q-1 -71 9 -104q11 -36 38 -49.5t87 -13.5q58 0 84 12q27 13 37.5 46.5t10.5 109.5z" />
    <glyph glyph-name="summation" unicode="&#x2211;" horiz-adv-x="602" 
d="M183 575l219 -237l-219 -245h369v-93h-499v91l221 247l-221 239v90h499v-92h-369z" />
    <glyph glyph-name="product" unicode="&#x220f;" horiz-adv-x="676" 
d="M588 0h-103v574h-292v-574h-104v574h-73v93h645v-93h-73v-574z" />
    <glyph glyph-name="pi" unicode="&#x3c0;" horiz-adv-x="661" 
d="M576 401h-56v-275q0 -27 6 -34q8 -8 35 -8h14v-84h-35q-69 0 -95 28q-24 25 -24 84v289h-191v-401h-99v401h-56v85h501v-85z" />
    <glyph glyph-name="integral" unicode="&#x222b;" horiz-adv-x="432" 
d="M326 586q-1 18 -20.5 28t-54.5 10q-52 0 -71 -22q-14 -18 -14 -62v-574q0 -160 -184 -160q-83 0 -128 30q-44 31 -44 89h97q0 -18 19.5 -28t54.5 -10q53 0 71 22q15 18 15 62v574q0 160 184 160q82 0 127 -30q44 -31 44 -89h-96z" />
    <glyph glyph-name="ordfeminine" unicode="&#xaa;" horiz-adv-x="382" 
d="M349 336h-61v33q-25 -21 -50 -29.5t-63 -8.5q-77 -1 -112 29q-30 25 -31 77q-2 63 39 90q36 23 110 23h99q-1 26 -5 39t-14 20q-16 10 -66 10q-48 0 -66 -9.5t-19 -35.5h-68q4 61 46 85q37 22 113 22q86 0 121 -38q15 -17 21 -41t6 -71v-195zM279 488h-101
q-45 0 -61.5 -10.5t-16.5 -38.5q0 -29 18 -39q16 -8 56 -8q72 0 94 38q11 19 11 58z" />
    <glyph glyph-name="ordmasculine" unicode="&#xba;" horiz-adv-x="385" 
d="M192 674q85 0 124 -37q20 -20 28.5 -50t8.5 -84t-8.5 -83.5t-28.5 -49.5q-39 -38 -124 -38q-86 0 -125 38q-20 20 -28 49t-8 84t8 84.5t28 49.5q39 37 125 37zM192 612q-65 0 -81 -29q-11 -19 -11 -80q0 -40 3 -57.5t12 -28.5q19 -22 77 -22q65 0 81 29q11 19 11 79
q0 39 -3.5 57.5t-12.5 29.5q-19 22 -76 22z" />
    <glyph glyph-name="Omega" unicode="&#x2126;" horiz-adv-x="676" 
d="M121 93q-39 33 -49 106q-5 39 -5 137q0 125 10 175q16 81 70 119q62 44 189 44t190 -44q54 -38 70 -118q11 -51 11 -176q0 -110 -9 -153q-11 -61 -46 -90h55v-93h-244v91q47 4 73 14.5t40 30.5q16 23 21 57q6 42 6 142q0 109 -9 152q-12 53 -46 73t-112 20
q-80 0 -112 -16q-35 -18 -46 -70q-8 -43 -8 -159q0 -98 5 -136.5t21 -62.5q14 -21 40 -31t74 -14v-91h-243v93h54z" />
    <glyph glyph-name="ae" unicode="&#xe6;" horiz-adv-x="872" 
d="M820 213h-339q0 -79 26 -108q28 -29 100 -29q113 0 114 68h93q0 -152 -210 -152q-126 0 -173 65q-28 -34 -75 -49.5t-119 -15.5q-101 0 -147 37t-46 114q0 99 72 133q44 20 135 20h135q0 40 -5 60t-17 32q-23 21 -93 21q-56 0 -82 -11q-35 -14 -35 -52h-96q0 148 211 148
q130 0 174 -58q49 58 159 58q97 0 146 -35q45 -31 60 -97q12 -49 12 -149zM722 295q0 68 -28 93q-26 24 -93 24q-72 0 -99 -34q-20 -26 -20 -83h240zM387 213h-141q-61 0 -81 -14q-21 -15 -21 -55q0 -38 23.5 -53.5t80.5 -15.5q62 0 92 14q28 13 38 44q8 24 9 80z" />
    <glyph glyph-name="oslash" unicode="&#xf8;" horiz-adv-x="555" 
d="M437 556l-31 -81q57 -31 77 -80q19 -43 19 -119v-33q0 -83 -14 -130q-12 -41 -39 -68q-28 -28 -69 -41t-107 -13q-28 0 -44 2l-35 -95l-85 30l34 88q-40 22 -59 48q-21 26 -29 67.5t-8 115.5q1 81 12.5 125t40.5 73q29 28 70 41t107 13q28 0 43 -1l34 88zM373 384
l-110 -303h9h6q56 0 80 11q26 12 35.5 44t9.5 108q1 66 -5 93.5t-25 46.5zM289 410h-9h-3q-56 -1 -81 -13q-27 -12 -38 -44.5t-11 -106.5q-1 -11 -1 -16q0 -54 7 -80t25 -42q81 219 111 302z" />
    <glyph glyph-name="questiondown" unicode="&#xbf;" horiz-adv-x="442" 
d="M420 -26q-4 -105 -55 -144q-44 -35 -143 -35q-112 0 -160 51q-42 44 -41 135q0 65 26 105q22 34 71 60q5 2 22 11q36 18 44 35q8 16 8 59v45h92v-61q0 -67 -25 -101q-22 -31 -74 -55q-43 -19 -58.5 -39.5t-15.5 -58.5q-2 -60 27 -83q25 -20 82 -20q68 0 90 23
q20 20 22 73h88zM180 435q1 30 15 43.5t43 13.5q57 0 57 -57q0 -30 -17 -46q-15 -13 -40 -13q-30 0 -45 18q-13 15 -13 41z" />
    <glyph glyph-name="exclamdown" unicode="&#xa1;" horiz-adv-x="293" 
d="M147 494q62 0 62 -62q0 -63 -62 -63t-62 63q0 62 62 62zM195 -181h-97v477h97v-477z" />
    <glyph glyph-name="logicalnot" unicode="&#xac;" horiz-adv-x="592" 
d="M556 0h-93v290h-428v90h521v-380z" />
    <glyph glyph-name="radical" unicode="&#x221a;" horiz-adv-x="624" 
d="M536 735l-216 -735h-109l-91 296h-120v92h187l76 -271l203 710h304v-92h-234z" />
    <glyph glyph-name="florin" unicode="&#x192;" horiz-adv-x="584" 
d="M546 511h-95q0 42 -23 57.5t-83 15.5q-57 0 -83 -12q-24 -10 -32.5 -33.5t-8.5 -78.5v-76h282v-89h-282v-486h-100v486h-64v89h64v74q0 69 5 93q9 43 40 71q54 52 169 52q99 0 145 -27q66 -39 66 -136z" />
    <glyph glyph-name="approxequal" unicode="&#x2248;" horiz-adv-x="591" 
d="M559 172q-7 -6 -42 -31q-45 -33 -77 -46.5t-62 -13.5q-37 0 -72 21q-45 26 -63.5 34t-35.5 8q-31 0 -80 -37q-26 -17 -37 -26l-58 63q10 9 42 31q47 33 78.5 46.5t61.5 13.5q36 0 71 -21q45 -26 63 -34t35 -8q31 0 81 36q24 17 37 27zM559 365q-9 -8 -42 -31
q-45 -33 -77 -46.5t-62 -13.5q-37 0 -72 21q-45 26 -63.5 34t-35.5 8q-31 0 -80 -37q-23 -15 -37 -26l-58 63q9 8 42 31q47 33 78.5 46.5t61.5 13.5q36 0 71 -21q45 -26 63 -34t35 -8q32 0 81 36q23 16 37 27z" />
    <glyph glyph-name="infinity" unicode="&#x2206;" horiz-adv-x="567" 
d="M283 291q32 41 63 59q31 17 68 17q62 0 93 -30q33 -32 33 -99q0 -78 -44 -108q-29 -20 -83 -20q-66 0 -131 79q-66 -79 -129 -79q-67 0 -95 28q-32 30 -32 100q0 77 39 107q29 22 87 22q42 0 71.5 -17t59.5 -59zM238 239q-25 33 -44 46t-41 13q-27 0 -38 -13
q-11 -14 -11 -47q0 -32 11.5 -45.5t37.5 -13.5q34 0 85 60zM327 240q51 -61 86 -61q26 0 37.5 13.5t11.5 45.5q0 33 -11 46.5t-38 13.5q-23 0 -43 -13.5t-43 -44.5z" />
    <glyph glyph-name="guillemotleft" unicode="&#xab;" horiz-adv-x="493" 
d="M455 393l-40 -40q-39 -40 -50 -56q-20 -29 -20 -56q0 -31 28 -66q11 -13 51 -52l31 -30l-64 -59q-73 66 -98 99q-43 55 -43 107q0 57 54 124q27 33 87 90zM245 393l-40 -40q-39 -40 -50 -56q-20 -29 -20 -56q0 -31 28 -66q11 -13 51 -52l31 -30l-64 -59q-73 66 -98 99
q-43 55 -43 107q0 57 54 124q27 33 87 90z" />
    <glyph glyph-name="guillemotright" unicode="&#xbb;" horiz-adv-x="493" 
d="M311 454q70 -66 98 -104q43 -59 43 -110q0 -58 -54 -121q-23 -27 -87 -85l-63 59l30 30q45 44 57 60q22 30 22 58q0 30 -25 63q-10 13 -45 49l-40 40zM101 454q70 -66 98 -104q43 -59 43 -110q0 -58 -54 -121q-23 -27 -87 -85l-63 59l30 30q45 44 57 60q22 30 22 58
q0 30 -25 63q-10 13 -45 49l-40 40z" />
    <glyph glyph-name="ellipsis" unicode="&#x2026;" horiz-adv-x="1003" 
d="M163 114q62 0 62 -62q0 -32 -18 -48q-15 -15 -44 -15q-32 0 -48 19q-14 16 -14 44q0 62 62 62zM499 114q62 0 62 -62q0 -32 -18 -48q-15 -15 -44 -15q-32 0 -48 19q-14 16 -14 44q0 62 62 62zM840 114q62 0 62 -62q0 -32 -18 -48q-15 -15 -44 -15q-32 0 -48 19
q-14 16 -14 44q0 62 62 62z" />
    <glyph glyph-name="glyph172" horiz-adv-x="569" 
 />
    <glyph glyph-name="Agrave" unicode="&#xc0;" horiz-adv-x="639" 
d="M630 0h-113l-65 177h-270l-64 -177h-108l258 667h105zM420 267l-102 281l-103 -281h205zM432 736h-110l-135 126h110z" />
    <glyph glyph-name="Atilde" unicode="&#xc3;" horiz-adv-x="639" 
d="M630 0h-113l-65 177h-270l-64 -177h-108l258 667h105zM420 267l-102 281l-103 -281h205zM520 796l-39 -20q-65 -33 -105 -33q-31 0 -58 17l-32 20q-14 7 -27 7q-18 0 -45 -14l-59 -29l-35 64l73 37q37 16 67 16q33 0 63 -18q31 -19 32 -19q14 -7 27 -7q20 0 48 14l56 29z
" />
    <glyph glyph-name="Otilde" unicode="&#xd5;" horiz-adv-x="675" 
d="M336 674q128 0 190 -44q54 -38 71 -119q10 -51 10 -176q0 -126 -12 -182q-18 -81 -72 -119q-62 -42 -186 -42q-127 0 -189 45q-54 38 -71 121q-10 51 -10 176t10 176q16 81 70 120q62 44 189 44zM336 580q-80 0 -117 -27q-34 -25 -43 -83q-6 -36 -6 -137q0 -105 7 -143
q10 -56 43 -79q36 -24 117 -24q75 0 111 24q35 24 46 80q9 43 9 143q0 107 -9 150q-11 54 -46 75q-34 21 -112 21zM536 796l-39 -20q-65 -33 -105 -33q-31 0 -58 17l-32 20q-14 7 -27 7q-18 0 -45 -14l-59 -29l-35 64l73 37q37 16 67 16q33 0 63 -18q31 -19 32 -19
q14 -7 27 -7q20 0 48 14l56 29z" />
    <glyph glyph-name="OE" unicode="&#x152;" horiz-adv-x="912" 
d="M847 0h-498q-103 0 -156 21q-51 20 -83 68q-26 39 -35 98q-7 49 -7 146q0 104 9 156t34 89q36 54 98 73q52 16 141 16h497v-92h-300v-187h290v-92h-290v-203h300v-93zM445 93v482h-89q-85 0 -121 -17q-39 -19 -52 -72q-11 -44 -11 -153t11 -153q13 -52 52 -70
q35 -17 120 -17h90z" />
    <glyph glyph-name="oe" unicode="&#x153;" horiz-adv-x="896" 
d="M845 207h-338q0 -49 9 -75q10 -29 37 -43q27 -13 80 -13q51 0 78 13q34 16 35 55h93q0 -91 -78 -128q-50 -24 -131 -24q-127 0 -174 66q-26 -35 -77 -52q-43 -14 -99 -14q-66 0 -109 14q-41 13 -68 41q-31 30 -43 83q-8 41 -8 113q0 82 11 126q12 44 40 71q55 54 177 54
q65 0 111 -19q42 -16 65 -46q47 65 171 65q98 0 148 -37q44 -33 59 -101q11 -48 11 -149zM747 290q0 39 -5.5 60.5t-18.5 34.5q-25 26 -96 26q-67 0 -93 -26.5t-26 -94.5h239zM280 406q-58 0 -86 -17q-26 -16 -35 -53q-7 -28 -7 -93q0 -64 7 -92q9 -37 35 -53q28 -17 86 -17
t86 17q26 16 34 53q7 28 7 92q0 65 -7 93q-9 37 -35 53q-28 17 -85 17z" />
    <glyph glyph-name="endash" unicode="&#x2013;" horiz-adv-x="592" 
d="M556 199h-521v89h521v-89z" />
    <glyph glyph-name="emdash" unicode="&#x2014;" horiz-adv-x="1005" 
d="M906 199h-808v89h808v-89z" />
    <glyph glyph-name="quotedblleft" unicode="&#x201c;" horiz-adv-x="408" 
d="M397 617q-30 -29 -36 -36t-11 -16q-11 -20 -11 -58v-100h-92v100q0 47 10.5 75.5t36.5 54.5l40 39zM217 618q-39 -37 -46 -53q-9 -18 -9 -58v-100h-92v100q0 51 8 77q9 29 35 54l40 38z" />
    <glyph glyph-name="quotedblright" unicode="&#x201d;" horiz-adv-x="407" 
d="M338 667v-99q0 -52 -9 -77q-9 -29 -34 -54l-40 -39l-63 59q37 37 45 52q9 19 9 59v99h92zM162 667v-99q0 -48 -10.5 -76.5t-36.5 -54.5l-41 -39l-63 59q31 30 37 36.5t11 15.5q11 20 11 59v99h92z" />
    <glyph glyph-name="quoteleft" unicode="&#x2018;" horiz-adv-x="231" 
d="M221 617q-31 -30 -37 -36.5t-11 -15.5q-11 -20 -11 -58v-100h-92v100q0 47 10.5 75.5t36.5 54.5l41 39z" />
    <glyph glyph-name="quoteright" unicode="&#x2019;" horiz-adv-x="231" 
d="M162 667v-99q0 -48 -10.5 -76.5t-36.5 -54.5l-41 -39l-63 59q31 30 37 36.5t11 15.5q11 20 11 59v99h92z" />
    <glyph glyph-name="divide" unicode="&#xf7;" horiz-adv-x="597" 
d="M302 494q61 0 61 -61q0 -33 -17 -49q-16 -15 -44 -15q-32 0 -48 19q-14 16 -14 45q0 61 62 61zM559 199h-521v89h521v-89zM302 117q61 0 61 -61q0 -33 -17 -49q-16 -15 -44 -15q-32 0 -48 19q-14 16 -14 45q0 61 62 61z" />
    <glyph glyph-name="lozenge" unicode="&#x25ca;" horiz-adv-x="627" 
d="M269 667h84l249 -333l-249 -334h-84l-244 334zM311 557l-162 -223l162 -224l167 224z" />
    <glyph glyph-name="ydieresis" unicode="&#xff;" horiz-adv-x="531" 
d="M156 -45q2 -64 101 -64q82 0 104 47q7 16 10 36t5 67q-46 -49 -139 -49q-134 0 -169 83q-10 25 -13 51.5t-3 94.5v265h100v-256v-41q0 -36 4 -54.5t14 -29.5q20 -23 79 -23q90 0 112 62q7 19 8.5 38t1.5 79v225h99v-446q0 -39 -2 -53q-8 -93 -59 -137q-52 -44 -149 -44
q-93 0 -146 35q-56 38 -56 114h98zM382 667q54 0 54 -53q0 -54 -54 -54q-53 0 -53 54q0 28 12.5 40.5t40.5 12.5zM166 667q55 0 55 -53q0 -54 -55 -54q-53 0 -53 54q0 28 12.5 40.5t40.5 12.5z" />
    <glyph glyph-name="Ydieresis" unicode="&#x178;" horiz-adv-x="589" 
d="M588 667l-241 -377v-290h-104v290l-241 377h120l175 -284l173 284h118zM404 862q54 0 54 -53q0 -54 -54 -54q-53 0 -53 54q0 28 12.5 40.5t40.5 12.5zM188 862q55 0 55 -53q0 -54 -55 -54q-53 0 -53 54q0 28 12.5 40.5t40.5 12.5z" />
    <glyph glyph-name="fraction" unicode="&#x2044;" horiz-adv-x="73" 
d="M244 667l-337 -667h-77l336 667h78z" />
    <glyph glyph-name="Euro" unicode="&#x20ac;" horiz-adv-x="592" 
d="M544 156q0 -98 -73 -137q-49 -26 -138 -26q-132 0 -184 70q-38 52 -42 162h-63v81h63v57h-64v82h64q5 125 57 177t169 52q102 0 153 -36q58 -40 58 -127h-100q0 41 -24.5 57t-86.5 16q-82 0 -107 -41q-17 -28 -19 -98h177v-82h-179v-57h178v-81h-176q1 -45 7 -69t18 -40
q27 -32 101 -32q61 0 85 15q26 16 26 57h100z" />
    <glyph glyph-name="guilsinglleft" unicode="&#x2039;" horiz-adv-x="283" 
d="M245 393l-40 -40q-39 -40 -50 -56q-20 -29 -20 -56q0 -31 28 -66q11 -13 51 -52l31 -30l-64 -59q-73 66 -98 99q-43 55 -43 107q0 57 54 124q27 33 87 90z" />
    <glyph glyph-name="guilsinglright" unicode="&#x203a;" horiz-adv-x="283" 
d="M101 454q70 -66 98 -104q43 -59 43 -110q0 -58 -54 -121q-23 -27 -87 -85l-63 59l30 30q45 44 57 60q22 30 22 58q0 30 -25 63q-10 13 -45 49l-40 40z" />
    <glyph glyph-name="daggerdbl" unicode="&#x2021;" horiz-adv-x="571" 
d="M481 195h-147v-286h-96v286h-148v84h148v124h-148v83h148v181h96v-181h147v-83h-147v-124h147v-84z" />
    <glyph glyph-name="periodcentered" unicode="&#xb7;" horiz-adv-x="231" 
d="M116 399q62 0 62 -62q0 -32 -18 -48q-15 -15 -44 -15q-32 0 -48 19q-14 16 -14 44q0 62 62 62z" />
    <glyph glyph-name="quotesinglbase" unicode="&#x201a;" horiz-adv-x="234" 
d="M162 118v-99q0 -48 -10.5 -76.5t-36.5 -54.5l-41 -39l-63 59q31 30 37 36.5t11 15.5q11 20 11 59v99h92z" />
    <glyph glyph-name="quotedblbase" unicode="&#x201e;" horiz-adv-x="410" 
d="M338 118v-99q0 -52 -9 -77q-9 -29 -34 -54l-40 -39l-64 59q38 37 46 52q9 19 9 59v99h92zM162 118v-99q0 -48 -10.5 -76.5t-36.5 -54.5l-41 -39l-63 59q31 30 37 36.5t11 15.5q11 20 11 59v99h92z" />
    <glyph glyph-name="perthousand" unicode="&#x2030;" horiz-adv-x="1254" 
d="M661 667l-337 -667h-77l336 667h78zM208 674q95 0 126 -57q16 -31 16 -91v-72v-22q0 -50 -5.5 -78.5t-19.5 -47.5q-32 -46 -117 -46q-96 0 -125 61q-16 35 -16 116v59q0 53 5.5 81.5t18.5 48.5q31 48 117 48zM279 467q0 93 -7 114q-7 16 -21.5 23.5t-42.5 7.5t-42.5 -8
t-20.5 -25q-7 -22 -7 -112q0 -91 7 -113q7 -17 21 -24.5t42 -7.5q29 0 43.5 8t20.5 26q7 21 7 111zM669 407q94 0 125 -57q16 -31 16 -91v-72q1 -15 1 -22q0 -50 -5.5 -78.5t-19.5 -47.5q-32 -46 -117 -46q-96 0 -125 61q-16 35 -16 117v59q0 52 5 80.5t19 48.5
q31 48 117 48zM740 200q0 93 -7 114q-7 16 -21.5 23.5t-42.5 7.5t-42.5 -8t-20.5 -25q-7 -22 -7 -112q0 -91 7 -113q7 -17 21 -24.5t42 -7.5q29 0 43.5 8t20.5 26q7 21 7 111zM1015 407q94 0 125 -57q16 -31 16 -91v-72v-22q0 -50 -5.5 -78.5t-19.5 -47.5q-32 -46 -116 -46
q-96 0 -125 61q-16 35 -16 117v59q0 52 5 80.5t18 48.5q32 48 118 48zM1086 200q0 93 -7 114q-7 16 -21.5 23.5t-42.5 7.5t-42.5 -8t-20.5 -25q-7 -22 -7 -112q0 -91 7 -113q7 -17 21 -24.5t42 -7.5q29 0 43.5 8t20.5 26q7 21 7 111z" />
    <glyph glyph-name="Acircumflex" unicode="&#xc2;" horiz-adv-x="639" 
d="M630 0h-113l-65 177h-270l-64 -177h-108l258 667h105zM420 267l-102 281l-103 -281h205zM500 735h-101l-75 73l-74 -73h-103l130 127h93z" />
    <glyph glyph-name="Ecircumflex" unicode="&#xca;" horiz-adv-x="594" 
d="M529 0h-449v667h449v-92h-346v-187h336v-92h-336v-203h346v-93zM480 735h-101l-75 73l-74 -73h-103l130 127h93z" />
    <glyph glyph-name="Aacute" unicode="&#xc1;" horiz-adv-x="639" 
d="M630 0h-113l-65 177h-270l-64 -177h-108l258 667h105zM420 267l-102 281l-103 -281h205zM462 862l-136 -126h-111l136 126h111z" />
    <glyph glyph-name="Edieresis" unicode="&#xcb;" horiz-adv-x="594" 
d="M529 0h-449v667h449v-92h-346v-187h336v-92h-336v-203h346v-93zM415 862q54 0 54 -53q0 -54 -54 -54q-53 0 -53 54q0 28 12.5 40.5t40.5 12.5zM199 862q55 0 55 -53q0 -54 -55 -54q-53 0 -53 54q0 28 12.5 40.5t40.5 12.5z" />
    <glyph glyph-name="Egrave" unicode="&#xc8;" horiz-adv-x="594" 
d="M529 0h-449v667h449v-92h-346v-187h336v-92h-336v-203h346v-93zM406 736h-110l-135 126h110z" />
    <glyph glyph-name="Iacute" unicode="&#xcd;" horiz-adv-x="263" 
d="M184 0h-104v667h104v-667zM267 862l-136 -126h-111l136 126h111z" />
    <glyph glyph-name="Icircumflex" unicode="&#xce;" horiz-adv-x="263" 
d="M184 0h-104v667h104v-667zM308 735h-101l-75 73l-74 -73h-103l130 127h93z" />
    <glyph glyph-name="Idieresis" unicode="&#xcf;" horiz-adv-x="263" 
d="M184 0h-103v667h103v-667zM240 862q54 0 54 -53q0 -54 -54 -54q-53 0 -53 54q0 28 12.5 40.5t40.5 12.5zM24 862q55 0 55 -53q0 -54 -55 -54q-53 0 -53 54q0 28 12.5 40.5t40.5 12.5z" />
    <glyph glyph-name="Igrave" unicode="&#xcc;" horiz-adv-x="263" 
d="M184 0h-104v667h104v-667zM261 736h-110l-135 126h110z" />
    <glyph glyph-name="Oacute" unicode="&#xd3;" horiz-adv-x="675" 
d="M336 674q128 0 190 -44q54 -38 71 -119q10 -51 10 -176q0 -126 -12 -182q-18 -81 -72 -119q-62 -42 -186 -42q-127 0 -189 45q-54 38 -71 121q-10 51 -10 176t10 176q16 81 70 120q62 44 189 44zM336 580q-80 0 -117 -27q-34 -25 -43 -83q-6 -36 -6 -137q0 -105 7 -143
q10 -56 43 -79q36 -24 117 -24q75 0 111 24q35 24 46 80q9 43 9 143q0 107 -9 150q-11 54 -46 75q-34 21 -112 21zM461 862l-136 -126h-111l136 126h111z" />
    <glyph glyph-name="Ocircumflex" unicode="&#xd4;" horiz-adv-x="675" 
d="M336 674q128 0 190 -44q54 -38 71 -119q10 -51 10 -176q0 -126 -12 -182q-18 -81 -72 -119q-62 -42 -186 -42q-127 0 -189 45q-54 38 -71 121q-10 51 -10 176t10 176q16 81 70 120q62 44 189 44zM336 580q-80 0 -117 -27q-34 -25 -43 -83q-6 -36 -6 -137q0 -105 7 -143
q10 -56 43 -79q36 -24 117 -24q75 0 111 24q35 24 46 80q9 43 9 143q0 107 -9 150q-11 54 -46 75q-34 21 -112 21zM500 735h-101l-75 73l-74 -73h-103l130 127h93z" />
    <glyph glyph-name="glyph210" horiz-adv-x="237" 
 />
    <glyph glyph-name="Ograve" unicode="&#xd2;" horiz-adv-x="675" 
d="M336 674q128 0 190 -44q54 -38 71 -119q10 -51 10 -176q0 -126 -12 -182q-18 -81 -72 -119q-62 -42 -186 -42q-127 0 -189 45q-54 38 -71 121q-10 51 -10 176t10 176q16 81 70 120q62 44 189 44zM336 580q-80 0 -117 -27q-34 -25 -43 -83q-6 -36 -6 -137q0 -105 7 -143
q10 -56 43 -79q36 -24 117 -24q75 0 111 24q35 24 46 80q9 43 9 143q0 107 -9 150q-11 54 -46 75q-34 21 -112 21zM448 736h-110l-135 126h110z" />
    <glyph glyph-name="Uacute" unicode="&#xda;" horiz-adv-x="652" 
d="M577 667v-332q0 -111 -2 -143q-7 -111 -85 -161q-61 -39 -164 -39q-118 0 -181 52q-62 50 -68 148q-2 32 -2 143v332h104v-332q0 -114 4 -145q7 -56 37 -79q31 -24 106 -24q76 0 108 24q29 22 36 79q4 30 4 145v332h103zM462 862l-136 -126h-111l136 126h111z" />
    <glyph glyph-name="Ucircumflex" unicode="&#xdb;" horiz-adv-x="652" 
d="M577 667v-332q0 -111 -2 -143q-7 -111 -85 -161q-61 -39 -164 -39q-118 0 -181 52q-62 50 -68 148q-2 32 -2 143v332h104v-332q0 -114 4 -145q7 -56 37 -79q31 -24 106 -24q76 0 108 24q29 22 36 79q4 30 4 145v332h103zM500 735h-101l-75 73l-74 -73h-103l130 127h93z
" />
    <glyph glyph-name="Ugrave" unicode="&#xd9;" horiz-adv-x="652" 
d="M577 667v-332q0 -111 -2 -143q-7 -111 -85 -161q-61 -39 -164 -39q-118 0 -181 52q-62 50 -68 148q-2 32 -2 143v332h104v-332q0 -114 4 -145q7 -56 37 -79q31 -24 106 -24q76 0 108 24q29 22 36 79q4 30 4 145v332h103zM448 736h-110l-135 126h110z" />
    <glyph glyph-name="dotlessi" unicode="&#x131;" horiz-adv-x="232" 
d="M165 0h-99v486h99v-486z" />
    <glyph glyph-name="circumflex" unicode="&#x2c6;" horiz-adv-x="434" 
d="M393 540h-101l-75 73l-74 -73h-103l130 127h93z" />
    <glyph glyph-name="tilde" unicode="&#x2dc;" horiz-adv-x="434" 
d="M417 603l-39 -20q-65 -33 -105 -33q-31 0 -58 17l-32 20q-14 7 -27 7q-18 0 -45 -14l-59 -29l-35 64l73 37q37 16 67 16q33 0 63 -18l32 -20q14 -7 27 -7q20 0 48 15l56 29z" />
    <glyph glyph-name="macron" unicode="&#xaf;" horiz-adv-x="434" 
d="M392 578h-350v73h350v-73z" />
    <glyph glyph-name="breve" unicode="&#x2d8;" horiz-adv-x="434" 
d="M362 667q0 -78 -36 -105q-32 -24 -109 -24q-87 0 -118 32q-27 28 -27 97h67q0 -39 16 -53t62 -14q45 0 61 13q18 15 18 54h66z" />
    <glyph glyph-name="dotaccent" unicode="&#x2d9;" horiz-adv-x="434" 
d="M216 667q55 0 55 -53q0 -54 -55 -54q-53 0 -53 54q0 28 12.5 40.5t40.5 12.5z" />
    <glyph glyph-name="ring" unicode="&#x2da;" horiz-adv-x="509" 
d="M253 722q69 0 96 -31q23 -26 23 -84q0 -66 -31 -93q-28 -24 -88 -24q-68 0 -96 32q-23 28 -23 85q0 66 31 92q28 23 88 23zM253 667q-36 0 -47 -15q-9 -12 -9 -46q0 -37 11.5 -49t44.5 -12q37 0 48 15q9 13 9 46q0 37 -11.5 49t-45.5 12z" />
    <glyph glyph-name="cedilla" unicode="&#xb8;" horiz-adv-x="434" 
d="M233 -39q34 -2 51 -23q14 -18 14 -48q0 -43 -23 -62q-21 -19 -63 -19q-47 0 -67 19q-19 18 -19 53h51q0 -15 7 -20.5t28 -5.5q19 0 26 7t7 26q0 30 -36 32q-8 1 -29 1v79h53v-39z" />
    <glyph glyph-name="hungarumlaut" unicode="&#x2dd;" horiz-adv-x="433" 
d="M429 667l-126 -126h-102l126 126h102zM248 667l-126 -126h-102l126 126h102z" />
    <glyph glyph-name="ogonek" unicode="&#x2db;" horiz-adv-x="414" 
d="M174 14l100 -9q-94 -45 -94 -108t83 -63l20 1v-68q-20 -3 -41 -3q-66 0 -105 33q-38 33 -38 92q0 77 75 125z" />
    <glyph glyph-name="caron" unicode="&#x2c7;" horiz-adv-x="434" 
d="M393 667l-130 -127h-93l-130 127h102l75 -72l73 72h103z" />
    <glyph glyph-name="nonbreakingspace" unicode="&#xa0;" horiz-adv-x="237" 
 />
    <glyph glyph-name="currency" unicode="&#xa4;" horiz-adv-x="584" 
d="M163 534q59 40 129 40q69 0 129 -42l86 88l62 -62l-87 -88q41 -61 41 -127q0 -69 -40 -130l87 -85l-63 -62l-86 85q-58 -39 -128 -39t-130 39l-85 -85l-62 62l85 84q-40 60 -40 132q0 66 40 128l-87 86l64 62zM293 485q-65 0 -107 -46q-36 -40 -36 -95q0 -65 47 -107
q40 -36 95 -36q63 0 105 47q37 41 37 96q0 62 -47 105q-40 36 -94 36z" />
    <glyph glyph-name="brokenbar" unicode="&#xa6;" horiz-adv-x="287" 
d="M192 335h-97v332h97v-332zM192 -191h-97v332h97v-332z" />
    <glyph glyph-name="uni00AD" unicode="&#xad;" horiz-adv-x="522" 
d="M453 199h-384v89h384v-89z" />
    <glyph glyph-name="twosuperior" unicode="&#xb2;" 
d="M70 568q0 63 46 88q32 18 93 18q75 0 108 -30q33 -29 33 -90q0 -42 -14 -64t-53 -40q-19 -10 -64 -25q-57 -19 -68 -31q-10 -12 -10 -37v-28h208v-62h-278v100q0 66 56 95q20 10 55 20l44 12q33 10 43.5 21.5t10.5 38.5q0 36 -16 48q-15 11 -54 11q-41 0 -56 -9.5
t-15 -35.5h-69z" />
    <glyph glyph-name="threesuperior" unicode="&#xb3;" 
d="M314 475q19 -13 26.5 -34t7.5 -59q-1 -67 -40 -96q-34 -25 -103 -25q-78 0 -109 29q-27 25 -30 83h67q2 -32 18 -41q14 -9 54 -9q50 -1 64 12q12 12 12 46q0 43 -16 54q-14 10 -58 10h-61v61h61q43 0 56 9.5t14 40.5q0 35 -16 45q-15 10 -54 10q-42 0 -56 -9.5t-16 -40.5
h-66q3 66 38 90q31 22 100 22q76 0 108 -31q28 -27 29 -83q0 -34 -6.5 -52.5t-23.5 -31.5z" />
    <glyph glyph-name="onesuperior" unicode="&#xb9;" 
d="M249 267h-70v303l-61 -53l-43 47l118 103h56v-400z" />
    <glyph glyph-name="onequarter" unicode="&#xbc;" horiz-adv-x="908" 
d="M842 95h-57v-95h-68v95h-180v50l183 255h65v-246h57v-59zM717 154v143l-102 -143h102zM661 667l-337 -667h-77l336 667h78zM249 267h-70v303l-61 -53l-43 47l118 103h56v-400z" />
    <glyph glyph-name="onehalf" unicode="&#xbd;" horiz-adv-x="908" 
d="M561 301q0 63 45 88q33 18 94 18q74 0 108 -30q33 -29 33 -90q0 -42 -14.5 -64t-53.5 -40q-18 -10 -63 -25q-57 -19 -69 -31q-9 -12 -9 -37v-28h208v-62h-278v100q0 66 56 95q20 10 55 20l44 12q33 10 43.5 21.5t10.5 38.5q0 36 -17 48q-15 11 -53 11q-42 0 -56.5 -9.5
t-14.5 -35.5h-69zM661 667l-337 -667h-77l336 667h78zM249 267h-70v303l-61 -53l-43 47l118 103h56v-400z" />
    <glyph glyph-name="threequarters" unicode="&#xbe;" horiz-adv-x="908" 
d="M842 95h-57v-95h-68v95h-180v50l183 255h65v-246h57v-59zM717 154v143l-102 -143h102zM662 667l-338 -667h-76l336 667h78zM314 475q19 -13 26.5 -34t7.5 -59q-1 -67 -40 -96q-34 -25 -103 -25q-78 0 -109 29q-27 25 -30 83h67q2 -32 18 -41q14 -9 54 -9q50 -1 64 12
q12 12 12 46q0 43 -16 54q-14 10 -58 10h-61v61h61q43 0 56 9.5t14 40.5q0 35 -16 45q-15 10 -54 10q-42 0 -56 -9.5t-16 -40.5h-66q3 66 38 90q31 22 100 22q76 0 108 -31q28 -27 29 -83q0 -34 -6.5 -52.5t-23.5 -31.5z" />
    <glyph glyph-name="Eth" unicode="&#xd0;" horiz-adv-x="687" 
d="M94 667h244q101 0 155 -21q52 -21 83 -68q27 -40 35 -99q8 -50 8 -146q0 -105 -9 -156t-33 -88q-36 -54 -98 -73q-51 -16 -141 -16h-244v290h-73v93h73v284zM196 94h136q83 0 118 16q39 18 53 69q13 46 13 154q0 110 -11 155q-14 51 -53 70q-35 16 -120 16h-136v-191h179
v-93h-179v-196z" />
    <glyph glyph-name="multiply" unicode="&#xd7;" horiz-adv-x="588" 
d="M530 79l-62 -62l-175 174l-173 -174l-62 62l174 173l-174 175l62 62l173 -175l175 175l62 -62l-175 -175z" />
    <glyph glyph-name="Yacute" unicode="&#xdd;" horiz-adv-x="589" 
d="M588 667l-241 -377v-290h-104v290l-241 377h120l175 -284l173 284h118zM430 862l-136 -126h-111l136 126h111z" />
    <glyph glyph-name="Thorn" unicode="&#xde;" horiz-adv-x="586" 
d="M177 530h129q82 0 124 -6t69 -23q71 -41 71 -164q0 -127 -72 -168q-27 -16 -71.5 -22.5t-120.5 -6.5h-129v-140h-100v667h100v-137zM177 232l146 -1q51 0 71.5 2.5t35.5 10.5q41 21 41 91q0 71 -41 91q-14 8 -36 10.5t-71 2.5l-146 -1v-206z" />
    <glyph glyph-name="eth" unicode="&#xf0;" horiz-adv-x="555" 
d="M262 637l74 -76q73 -76 89 -96q40 -49 58 -95q21 -54 21 -127q0 -82 -13 -127q-18 -60 -63 -90q-53 -34 -150 -34q-100 0 -151 32q-45 28 -62 87q-12 44 -12 133q-1 74 10 115q15 58 56 89q47 35 136 38h12q10 0 19 -1l-92 93l-56 -47l-53 49l59 50l-43 43l64 58l46 -45
l52 46l50 -51zM405 243q0 100 -37 132q-29 26 -102 26q-78 0 -101 -46q-15 -31 -15 -112q0 -68 5 -94q8 -36 34 -51q28 -16 89 -16q59 0 87 16q26 15 34 52q6 26 6 93z" />
    <glyph glyph-name="yacute" unicode="&#xfd;" horiz-adv-x="531" 
d="M156 -45q2 -64 101 -64q82 0 104 47q7 16 10 36t5 67q-46 -49 -139 -49q-134 0 -169 83q-10 25 -13 51.5t-3 94.5v265h100v-256v-41q0 -36 4 -54.5t14 -29.5q20 -23 79 -23q90 0 112 62q7 19 8.5 38t1.5 79v225h99v-446q0 -39 -2 -53q-8 -93 -59 -137q-52 -44 -149 -44
q-93 0 -146 35q-56 38 -56 114h98zM415 667l-136 -126h-111l136 126h111z" />
    <glyph glyph-name="thorn" unicode="&#xfe;" horiz-adv-x="560" 
d="M159 444q54 51 152 50q84 -1 129 -32q41 -28 56 -87q12 -46 12 -133q0 -74 -12 -119q-16 -61 -57 -93q-49 -38 -138 -38q-49 0 -81 11.5t-55 37.5v-232h-99v888h93v-253zM299 404q-54 0 -81 -13q-29 -14 -41 -48t-12 -101q0 -66 12 -99q12 -34 39.5 -48t82.5 -14
q46 0 70 16q22 15 31 47.5t9 98.5q0 97 -24 129q-23 32 -86 32z" />
    <glyph glyph-name="Amacron" unicode="&#x100;" horiz-adv-x="639" 
d="M630 0h-113l-65 177h-270l-64 -177h-108l258 667h105zM420 267l-102 281l-103 -281h205zM498 783h-350v72h350v-72z" />
    <glyph glyph-name="amacron" unicode="&#x101;" horiz-adv-x="540" 
d="M479 0h-89v44q-24 -25 -65 -38.5t-92 -13.5q-100 0 -145 39q-44 37 -44 115q0 100 71 134q44 22 133 22h134q0 40 -3 57t-14 27q-22 23 -95 23q-56 0 -81 -11q-35 -14 -35 -52h-96q0 89 74 124q51 24 144 24q123 0 170 -61q33 -43 33 -125v-308zM384 220h-140
q-60 0 -80 -16t-20 -57q0 -40 24 -56t78 -16q94 0 120 41q18 28 18 104zM449 578h-350v73h350v-73z" />
    <glyph glyph-name="Abreve" unicode="&#x102;" horiz-adv-x="639" 
d="M630 0h-113l-65 177h-270l-64 -177h-108l258 667h105zM420 267l-102 281l-103 -281h205zM465 867q0 -78 -36 -105q-32 -24 -109 -24q-87 0 -118 32q-27 28 -27 97h67q0 -39 16 -53t62 -14q45 0 61 13q18 15 18 54h66z" />
    <glyph glyph-name="abreve" unicode="&#x103;" horiz-adv-x="540" 
d="M479 0h-89v44q-24 -25 -65 -38.5t-92 -13.5q-100 0 -145 39q-44 37 -44 115q0 100 71 134q44 22 133 22h134q0 40 -3 57t-14 27q-22 23 -95 23q-56 0 -81 -11q-35 -14 -35 -52h-96q0 89 74 124q51 24 144 24q123 0 170 -61q33 -43 33 -125v-308zM384 220h-140
q-60 0 -80 -16t-20 -57q0 -40 24 -56t78 -16q94 0 120 41q18 28 18 104zM418 667q0 -78 -36 -105q-32 -24 -109 -24q-87 0 -118 32q-27 28 -27 97h67q0 -39 16 -53t62 -14q45 0 61 13q18 15 18 54h66z" />
    <glyph glyph-name="Aogonek" unicode="&#x104;" horiz-adv-x="639" 
d="M373 667l257 -667q-99 -47 -99 -103q0 -62 83 -62q13 0 32 2v-68q-26 -5 -52 -5q-67 0 -107 33q-39 33 -39 92q0 71 67 116l-63 172h-270l-64 -177h-108l258 667h105zM420 267l-102 281l-103 -281h205z" />
    <glyph glyph-name="aogonek" unicode="&#x105;" horiz-adv-x="540" 
d="M479 0h-1q-83 -43 -83 -103q0 -62 83 -62q13 0 32 2v-68q-26 -5 -52 -5q-68 0 -107 33t-39 92q0 78 76 125l1 -1v31q-24 -25 -64.5 -38.5t-91.5 -13.5q-100 0 -145 39q-44 37 -44 115q0 100 71 134q44 22 133 22h134q0 40 -3.5 57t-13.5 27q-23 23 -95 23q-57 0 -81 -11
q-35 -14 -35 -52h-96q0 89 74 124q51 24 144 24q123 0 170 -61q33 -43 33 -125v-308zM384 220h-140q-60 0 -80 -16t-20 -57q0 -40 24 -56t78 -16q93 0 120 41q18 28 18 104z" />
    <glyph glyph-name="Cacute" unicode="&#x106;" horiz-adv-x="651" 
d="M590 183q0 -112 -74 -156q-58 -35 -172 -35q-130 0 -194 45q-55 39 -71 122q-11 51 -11 175t11 175q17 82 72 120q64 45 194 45q131 0 188 -46t57 -144h-101q0 38 -12 57q-14 21 -46 30t-95 9q-75 0 -109 -22q-35 -21 -46 -76q-9 -44 -9 -149t9 -149q11 -54 45 -76
q34 -21 110 -21q96 0 126 23q27 20 27 73h101zM457 862l-136 -126h-111l136 126h111z" />
    <glyph glyph-name="cacute" unicode="&#x107;" horiz-adv-x="525" 
d="M477 144q0 -152 -204 -152q-145 0 -191 83q-20 35 -26 89q-4 33 -4 81q0 82 13 127q17 59 62 89q51 33 146 33q204 0 204 -151h-94q0 42 -41 56q-22 7 -67 7q-55 0 -82 -16q-23 -15 -32 -46t-9 -100q0 -64 7 -94q9 -37 34 -52q27 -17 82 -17q52 0 75 11q33 14 33 52h94z
M389 667l-136 -126h-111l136 126h111z" />
    <glyph glyph-name="Ccircumflex" unicode="&#x108;" horiz-adv-x="651" 
d="M590 183q0 -112 -74 -156q-58 -35 -172 -35q-130 0 -194 45q-55 39 -71 122q-11 51 -11 175t11 175q17 82 72 120q64 45 194 45q131 0 188 -46t57 -144h-101q0 38 -12 57q-14 21 -46 30t-95 9q-75 0 -109 -22q-35 -21 -46 -76q-9 -44 -9 -149t9 -149q11 -54 45 -76
q34 -21 110 -21q96 0 126 23q27 20 27 73h101zM514 735h-101l-75 73l-74 -73h-103l130 127h93z" />
    <glyph glyph-name="ccircumflex" unicode="&#x109;" horiz-adv-x="525" 
d="M477 144q0 -152 -204 -152q-145 0 -191 83q-20 35 -26 89q-4 33 -4 81q0 82 13 127q17 59 62 89q51 33 146 33q204 0 204 -151h-94q0 42 -41 56q-22 7 -67 7q-55 0 -82 -16q-23 -15 -32 -46t-9 -100q0 -64 7 -94q9 -37 34 -52q27 -17 82 -17q52 0 75 11q33 14 33 52h94z
M451 540h-101l-75 73l-74 -73h-103l130 127h93z" />
    <glyph glyph-name="Cdotaccent" unicode="&#x10a;" horiz-adv-x="651" 
d="M590 183q0 -112 -74 -156q-58 -35 -172 -35q-130 0 -194 45q-55 39 -71 122q-11 51 -11 175t11 175q17 82 72 120q64 45 194 45q131 0 188 -46t57 -144h-101q0 38 -12 57q-14 21 -46 30t-95 9q-75 0 -109 -22q-35 -21 -46 -76q-9 -44 -9 -149t9 -149q11 -54 45 -76
q34 -21 110 -21q96 0 126 23q27 20 27 73h101zM337 862q55 0 55 -53q0 -54 -55 -54q-53 0 -53 54q0 28 12.5 40.5t40.5 12.5z" />
    <glyph glyph-name="cdotaccent" unicode="&#x10b;" horiz-adv-x="525" 
d="M477 144q0 -152 -204 -152q-145 0 -191 83q-20 35 -26 89q-4 33 -4 81q0 82 13 127q17 59 62 89q51 33 146 33q204 0 204 -151h-94q0 42 -41 56q-22 7 -67 7q-55 0 -82 -16q-23 -15 -32 -46t-9 -100q0 -64 7 -94q9 -37 34 -52q27 -17 82 -17q52 0 75 11q33 14 33 52h94z
M274 667q55 0 55 -53q0 -54 -55 -54q-53 0 -53 54q0 28 12.5 40.5t40.5 12.5z" />
    <glyph glyph-name="Ccaron" unicode="&#x10c;" horiz-adv-x="651" 
d="M590 183q0 -112 -74 -156q-58 -35 -172 -35q-130 0 -194 45q-55 39 -71 122q-11 51 -11 175t11 175q17 82 72 120q64 45 194 45q131 0 188 -46t57 -144h-101q0 38 -12 57q-14 21 -46 30t-95 9q-75 0 -109 -22q-35 -21 -46 -76q-9 -44 -9 -149t9 -149q11 -54 45 -76
q34 -21 110 -21q96 0 126 23q27 20 27 73h101zM513 863l-130 -127h-93l-130 127h102l75 -72l73 72h103z" />
    <glyph glyph-name="ccaron" unicode="&#x10d;" horiz-adv-x="525" 
d="M477 144q0 -152 -204 -152q-145 0 -191 83q-20 35 -26 89q-4 33 -4 81q0 82 13 127q17 59 62 89q51 33 146 33q204 0 204 -151h-94q0 42 -41 56q-22 7 -67 7q-55 0 -82 -16q-23 -15 -32 -46t-9 -100q0 -64 7 -94q9 -37 34 -52q27 -17 82 -17q52 0 75 11q33 14 33 52h94z
M451 667l-130 -127h-93l-130 127h102l75 -72l73 72h103z" />
    <glyph glyph-name="Dcaron" unicode="&#x10e;" horiz-adv-x="673" 
d="M80 667h244q101 0 155 -21q52 -21 83 -68q27 -40 35 -99q8 -50 8 -146q0 -105 -9 -156t-33 -88q-36 -54 -98 -73q-51 -16 -141 -16h-244v667zM182 94h136q85 0 123 21t51 74q10 42 10 144q0 104 -11 148q-14 53 -53 73q-38 20 -120 20h-136v-480zM500 863l-130 -127h-93
l-130 127h102l75 -72l73 72h103z" />
    <glyph glyph-name="dcaron" unicode="&#x10f;" horiz-adv-x="692" 
d="M494 0h-91v44q-24 -25 -63.5 -38.5t-87.5 -13.5q-135 0 -177 88q-13 27 -18 63.5t-5 99.5q0 81 12 128q16 60 56 90q44 33 124 33q106 0 151 -48v251h99v-697zM262 402q-46 0 -70 -16q-22 -14 -31 -46.5t-9 -97.5q0 -97 24 -129q23 -31 86 -31q53 0 80 13q30 13 42 47
t12 100t-12 99q-12 34 -39.5 47.5t-82.5 13.5zM681 697v-34q0 -48 -10 -76t-37 -54l-41 -41l-61 61q30 29 36 35.5t11 16.5q10 19 10 58v34h92z" />
    <glyph glyph-name="Dcroat" unicode="&#x110;" horiz-adv-x="687" 
d="M94 667h244q101 0 155 -21q52 -21 83 -68q27 -40 35 -99q8 -50 8 -146q0 -105 -9 -156t-33 -88q-36 -54 -98 -73q-51 -16 -141 -16h-244v290h-73v93h73v284zM196 94h136q83 0 118 16q39 18 53 69q13 46 13 154q0 110 -11 155q-14 51 -53 70q-35 16 -120 16h-136v-191h179
v-93h-179v-196z" />
    <glyph glyph-name="dcroat" unicode="&#x111;" horiz-adv-x="560" 
d="M247 550v72h148v75h99v-75h84v-72h-84v-550h-91v44q-24 -25 -63.5 -38.5t-87.5 -13.5q-135 0 -177 88q-13 27 -18 63.5t-5 99.5q0 81 12 128q16 60 56 90q44 33 124 33q106 0 151 -48v104h-148zM262 402q-46 0 -70 -16q-22 -14 -31 -46.5t-9 -97.5q0 -97 24 -129
q23 -31 86 -31q53 0 80 13q30 13 42 47t12 100t-12 99q-12 34 -39.5 47.5t-82.5 13.5z" />
    <glyph glyph-name="Emacron" unicode="&#x112;" horiz-adv-x="594" 
d="M529 0h-449v667h449v-92h-346v-187h336v-92h-336v-203h346v-93zM480 783h-350v72h350v-72z" />
    <glyph glyph-name="emacron" unicode="&#x113;" horiz-adv-x="541" 
d="M490 207h-338q0 -49 9 -75q10 -29 37 -43q27 -13 80 -13q51 0 78 13q34 16 35 55h93q0 -91 -78 -128q-50 -24 -131 -24q-142 0 -190 77q-33 53 -33 169q0 84 14 133q18 60 63 90q51 33 143 33q98 0 148 -37q44 -33 59 -101q11 -48 11 -149zM392 290q0 39 -5.5 60.5
t-18.5 34.5q-25 26 -96 26q-67 0 -93 -26.5t-26 -94.5h239zM448 578h-350v73h350v-73z" />
    <glyph glyph-name="Ebreve" unicode="&#x114;" horiz-adv-x="594" 
d="M529 0h-449v667h449v-92h-346v-187h336v-92h-336v-203h346v-93zM449 867q0 -78 -36 -105q-32 -24 -109 -24q-87 0 -118 32q-27 28 -27 97h67q0 -39 16 -53t62 -14q45 0 61 13q18 15 18 54h66z" />
    <glyph glyph-name="ebreve" unicode="&#x115;" horiz-adv-x="541" 
d="M490 207h-338q0 -49 9 -75q10 -29 37 -43q27 -13 80 -13q51 0 78 13q34 16 35 55h93q0 -91 -78 -128q-50 -24 -131 -24q-142 0 -190 77q-33 53 -33 169q0 84 14 133q18 60 63 90q51 33 143 33q98 0 148 -37q44 -33 59 -101q11 -48 11 -149zM392 290q0 39 -5.5 60.5
t-18.5 34.5q-25 26 -96 26q-67 0 -93 -26.5t-26 -94.5h239zM418 667q0 -78 -36 -105q-32 -24 -109 -24q-87 0 -118 32q-27 28 -27 97h67q0 -39 16 -53t62 -14q45 0 61 13q18 15 18 54h66z" />
    <glyph glyph-name="Edotaccent" unicode="&#x116;" horiz-adv-x="594" 
d="M529 0h-449v667h449v-92h-346v-187h336v-92h-336v-203h346v-93zM304 862q55 0 55 -53q0 -54 -55 -54q-53 0 -53 54q0 28 12.5 40.5t40.5 12.5z" />
    <glyph glyph-name="edotaccent" unicode="&#x117;" horiz-adv-x="541" 
d="M490 207h-338q0 -49 9 -75q10 -29 37 -43q27 -13 80 -13q51 0 78 13q34 16 35 55h93q0 -91 -78 -128q-50 -24 -131 -24q-142 0 -190 77q-33 53 -33 169q0 84 14 133q18 60 63 90q51 33 143 33q98 0 148 -37q44 -33 59 -101q11 -48 11 -149zM392 290q0 39 -5.5 60.5
t-18.5 34.5q-25 26 -96 26q-67 0 -93 -26.5t-26 -94.5h239zM273 667q55 0 55 -53q0 -54 -55 -54q-53 0 -53 54q0 28 12.5 40.5t40.5 12.5z" />
    <glyph glyph-name="Eogonek" unicode="&#x118;" horiz-adv-x="594" 
d="M529 0q-99 -47 -99 -103q0 -62 83 -62q13 0 32 2v-68q-25 -5 -52 -5q-67 0 -107 33q-39 33 -39 92q0 34 18 65q18 29 48 46h-333v667h449v-92h-346v-187h336v-92h-336v-203h346v-93z" />
    <glyph glyph-name="eogonek" unicode="&#x119;" horiz-adv-x="541" 
d="M228 -5q-111 11 -150 86q-26 52 -26 157q0 84 14 133q18 60 64 90q50 33 142 33q98 0 149 -37q44 -33 58 -101q11 -48 11 -149h-338q0 -49 9 -75q10 -29 37 -43q27 -13 80 -13q51 0 78 13q34 16 35 55h93q0 -126 -146 -147q-77 -42 -77 -100q0 -62 83 -62q13 0 32 2v-68
q-26 -5 -52 -5q-67 0 -107 33q-39 33 -39 92q0 63 50 106zM392 290q0 39 -5.5 60.5t-18.5 34.5q-25 26 -96 26q-67 0 -93 -26.5t-26 -94.5h239z" />
    <glyph glyph-name="Ecaron" unicode="&#x11a;" horiz-adv-x="594" 
d="M529 0h-449v667h449v-92h-346v-187h336v-92h-336v-203h346v-93zM481 863l-130 -127h-93l-130 127h102l75 -72l73 72h103z" />
    <glyph glyph-name="ecaron" unicode="&#x11b;" horiz-adv-x="541" 
d="M490 207h-338q0 -49 9 -75q10 -29 37 -43q27 -13 80 -13q51 0 78 13q34 16 35 55h93q0 -91 -78 -128q-50 -24 -131 -24q-142 0 -190 77q-33 53 -33 169q0 84 14 133q18 60 63 90q51 33 143 33q98 0 148 -37q44 -33 59 -101q11 -48 11 -149zM392 290q0 39 -5.5 60.5
t-18.5 34.5q-25 26 -96 26q-67 0 -93 -26.5t-26 -94.5h239zM450 667l-130 -127h-93l-130 127h102l75 -72l73 72h103z" />
    <glyph glyph-name="Gcircumflex" unicode="&#x11c;" horiz-adv-x="675" 
d="M600 372v-131q0 -80 -14 -124q-20 -60 -75 -90q-62 -35 -179 -35q-121 0 -181 42q-53 37 -71 118q-12 56 -12 182q0 124 11 175q17 82 72 121q64 44 195 44t192 -45q61 -47 61 -145h-102q0 58 -40 78q-35 18 -120 18q-77 0 -112 -23q-34 -22 -45 -77q-8 -42 -8 -147
q0 -104 8 -146q11 -55 44 -77q34 -23 108 -23q80 0 116 19q34 18 45 62q7 32 7 114h-163v90h263zM514 735h-101l-75 73l-74 -73h-103l130 127h93z" />
    <glyph glyph-name="gcircumflex" unicode="&#x11d;" horiz-adv-x="558" 
d="M492 486v-435q0 -81 -4 -108q-13 -81 -91 -115q-53 -22 -130 -22q-95 0 -147 35q-57 38 -57 114h98q0 -32 30 -48q26 -15 73 -15q117 0 127 72q2 19 2 69v15q-47 -48 -144 -48q-131 0 -173 86q-24 51 -24 161q0 82 13 128q16 59 56 87q45 32 127 32q103 0 154 -50v42h90z
M261 405q-46 0 -69 -15q-22 -15 -31 -46.5t-9 -97.5q0 -52 5.5 -80.5t17.5 -45.5q23 -29 86 -29q54 0 80 12q29 13 41 45.5t12 97.5t-12 98q-11 34 -38.5 47.5t-82.5 13.5zM449 540h-101l-75 73l-74 -73h-103l130 127h93z" />
    <glyph glyph-name="Gbreve" unicode="&#x11e;" horiz-adv-x="675" 
d="M600 372v-131q0 -80 -14 -124q-20 -60 -75 -90q-62 -35 -179 -35q-121 0 -181 42q-53 37 -71 118q-12 56 -12 182q0 124 11 175q17 82 72 121q64 44 195 44t192 -45q61 -47 61 -145h-102q0 58 -40 78q-35 18 -120 18q-77 0 -112 -23q-34 -22 -45 -77q-8 -42 -8 -147
q0 -104 8 -146q11 -55 44 -77q34 -23 108 -23q80 0 116 19q34 18 45 62q7 32 7 114h-163v90h263zM482 867q0 -78 -36 -105q-32 -24 -109 -24q-87 0 -118 32q-27 28 -27 97h67q0 -39 16 -53t62 -14q45 0 61 13q18 15 18 54h66z" />
    <glyph glyph-name="gbreve" unicode="&#x11f;" horiz-adv-x="558" 
d="M492 486v-435q0 -81 -4 -108q-13 -81 -91 -115q-53 -22 -130 -22q-95 0 -147 35q-57 38 -57 114h98q0 -32 30 -48q26 -15 73 -15q117 0 127 72q2 19 2 69v15q-47 -48 -144 -48q-131 0 -173 86q-24 51 -24 161q0 82 13 128q16 59 56 87q45 32 127 32q103 0 154 -50v42h90z
M261 405q-46 0 -69 -15q-22 -15 -31 -46.5t-9 -97.5q0 -52 5.5 -80.5t17.5 -45.5q23 -29 86 -29q54 0 80 12q29 13 41 45.5t12 97.5t-12 98q-11 34 -38.5 47.5t-82.5 13.5zM418 667q0 -78 -36 -105q-32 -24 -109 -24q-87 0 -118 32q-27 28 -27 97h67q0 -39 16 -53t62 -14
q45 0 61 13q18 15 18 54h66z" />
    <glyph glyph-name="Gdotaccent" unicode="&#x120;" horiz-adv-x="675" 
d="M600 372v-131q0 -80 -14 -124q-20 -60 -75 -90q-62 -35 -179 -35q-121 0 -181 42q-53 37 -71 118q-12 56 -12 182q0 124 11 175q17 82 72 121q64 44 195 44t192 -45q61 -47 61 -145h-102q0 58 -40 78q-35 18 -120 18q-77 0 -112 -23q-34 -22 -45 -77q-8 -42 -8 -147
q0 -104 8 -146q11 -55 44 -77q34 -23 108 -23q80 0 116 19q34 18 45 62q7 32 7 114h-163v90h263zM337 862q55 0 55 -53q0 -54 -55 -54q-53 0 -53 54q0 28 12.5 40.5t40.5 12.5z" />
    <glyph glyph-name="gdotaccent" unicode="&#x121;" horiz-adv-x="558" 
d="M492 486v-435q0 -81 -4 -108q-13 -81 -91 -115q-53 -22 -130 -22q-95 0 -147 35q-57 38 -57 114h98q0 -32 30 -48q26 -15 73 -15q117 0 127 72q2 19 2 69v15q-47 -48 -144 -48q-131 0 -173 86q-24 51 -24 161q0 82 13 128q16 59 56 87q45 32 127 32q103 0 154 -50v42h90z
M261 405q-46 0 -69 -15q-22 -15 -31 -46.5t-9 -97.5q0 -52 5.5 -80.5t17.5 -45.5q23 -29 86 -29q54 0 80 12q29 13 41 45.5t12 97.5t-12 98q-11 34 -38.5 47.5t-82.5 13.5zM272 667q55 0 55 -53q0 -54 -55 -54q-53 0 -53 54q0 28 12.5 40.5t40.5 12.5z" />
    <glyph glyph-name="Gcommaaccent" unicode="&#x122;" horiz-adv-x="675" 
d="M600 372v-131q0 -80 -14 -124q-20 -60 -75 -90q-62 -35 -179 -35q-121 0 -181 42q-53 37 -71 118q-12 56 -12 182q0 124 11 175q17 82 72 121q64 44 195 44t192 -45q61 -47 61 -145h-102q0 58 -40 78q-35 18 -120 18q-77 0 -112 -23q-34 -22 -45 -77q-8 -42 -8 -147
q0 -104 8 -146q11 -55 44 -77q34 -23 108 -23q80 0 116 19q34 18 45 62q7 32 7 114h-163v90h263zM380 -42v-35q0 -47 -10 -75t-37 -55l-40 -40l-62 61q30 28 36 35t11 17q10 18 10 57v35h92z" />
    <glyph glyph-name="gcommaaccent" unicode="&#x123;" horiz-adv-x="558" 
d="M492 486v-435q0 -81 -4 -108q-13 -81 -91 -115q-53 -22 -130 -22q-95 0 -147 35q-57 38 -57 114h98q0 -32 30 -48q26 -15 73 -15q117 0 127 72q2 19 2 69v15q-47 -48 -144 -48q-131 0 -173 86q-24 51 -24 161q0 82 13 128q16 59 56 87q45 32 127 32q103 0 154 -50v42h90z
M261 405q-46 0 -69 -15q-22 -15 -31 -46.5t-9 -97.5q0 -52 5.5 -80.5t17.5 -45.5q23 -29 86 -29q54 0 80 12q29 13 41 45.5t12 97.5t-12 98q-11 34 -38.5 47.5t-82.5 13.5zM204 541v34q0 48 10 76t37 54l41 41l61 -61q-30 -29 -36 -35.5t-11 -16.5q-10 -19 -10 -58v-34h-92z
" />
    <glyph glyph-name="Hcircumflex" unicode="&#x124;" horiz-adv-x="658" 
d="M579 0h-103v295h-292v-295h-104v667h104v-279h292v279h103v-667zM506 735h-101l-75 73l-74 -73h-103l130 127h93z" />
    <glyph glyph-name="hcircumflex" unicode="&#x125;" horiz-adv-x="545" 
d="M485 0h-99v256v42q0 36 -4 54t-14 30q-20 23 -80 23q-90 0 -112 -62q-7 -19 -8.5 -39t-1.5 -79v-225h-99v697h99v-248q51 45 133 45q125 0 164 -69q12 -22 17 -50.5t5 -76.5v-32v-266zM293 751h-101l-75 73l-74 -73h-103l130 127h93z" />
    <glyph glyph-name="Hbar" unicode="&#x126;" horiz-adv-x="658" 
d="M579 0h-103v295h-292v-295h-103v484h-87v93h87v90h103v-90h292v90h103v-90h87v-93h-87v-484zM184 388h292v96h-292v-96z" />
    <glyph glyph-name="hbar" unicode="&#x127;" horiz-adv-x="545" 
d="M166 550v-101q51 45 133 45q125 0 164 -69q12 -22 17 -50.5t5 -76.5v-32v-266h-99v256q0 70 -2 83q-4 35 -23 49q-21 17 -73 17q-90 0 -112 -62q-7 -19 -8.5 -39t-1.5 -79v-225h-99v550h-85v72h85v75h99v-75h148v-72h-148z" />
    <glyph glyph-name="Itilde" unicode="&#x128;" horiz-adv-x="263" 
d="M184 0h-104v667h104v-667zM332 796l-39 -20q-65 -33 -105 -33q-31 0 -58 17l-32 20q-14 7 -27 7q-18 0 -45 -14l-59 -29l-35 64l73 37q37 16 67 16q33 0 63 -18q31 -19 32 -19q14 -7 27 -7q20 0 48 14l56 29z" />
    <glyph glyph-name="itilde" unicode="&#x129;" horiz-adv-x="232" 
d="M166 0h-99v486h99v-486zM317 603l-39 -20q-65 -33 -105 -33q-31 0 -58 17l-32 20q-14 7 -27 7q-18 0 -45 -14l-59 -29l-35 64l73 37q37 16 67 16q33 0 63 -18l32 -20q14 -7 27 -7q20 0 48 15l56 29z" />
    <glyph glyph-name="Imacron" unicode="&#x12a;" horiz-adv-x="263" 
d="M185 0h-104v667h104v-667zM308 783h-350v72h350v-72z" />
    <glyph glyph-name="imacron" unicode="&#x12b;" horiz-adv-x="232" 
d="M166 0h-99v486h99v-486zM292 578h-350v73h350v-73z" />
    <glyph glyph-name="Ibreve" unicode="&#x12c;" horiz-adv-x="263" 
d="M184 0h-104v667h104v-667zM277 867q0 -78 -36 -105q-32 -24 -109 -24q-87 0 -118 32q-27 28 -27 97h67q0 -39 16 -53t62 -14q45 0 61 13q18 15 18 54h66z" />
    <glyph glyph-name="ibreve" unicode="&#x12d;" horiz-adv-x="232" 
d="M166 0h-99v486h99v-486zM262 667q0 -78 -36 -105q-32 -24 -109 -24q-87 0 -118 32q-27 28 -27 97h67q0 -39 16 -53t62 -14q45 0 61 13q18 15 18 54h66z" />
    <glyph glyph-name="Iogonek" unicode="&#x12e;" horiz-adv-x="263" 
d="M80 13v654h104v-667q-99 -47 -99 -103q0 -62 83 -62q13 0 32 2v-68q-25 -5 -52 -5q-67 0 -107 33q-39 33 -39 92q0 77 78 124z" />
    <glyph glyph-name="iogonek" unicode="&#x12f;" horiz-adv-x="232" 
d="M116 674q26 0 41 -14q15 -15 15 -41t-15 -41t-41 -15t-41 15t-15 41t15 40.5t41 14.5zM166 486v-486q-48 -25 -68.5 -48.5t-20.5 -54.5q0 -63 83 -63l25 2v-69q-20 -3 -46 -3q-66 0 -105 33q-38 33 -38 92q0 75 71 120v477h99z" />
    <glyph glyph-name="Idotaccent" unicode="&#x130;" horiz-adv-x="263" 
d="M184 0h-104v667h104v-667zM131 862q55 0 55 -53q0 -54 -55 -54q-53 0 -53 54q0 28 12.5 40.5t40.5 12.5z" />
    <glyph glyph-name="Jcircumflex" unicode="&#x134;" horiz-adv-x="542" 
d="M468 667v-451q0 -63 -4 -85q-13 -83 -85 -116q-49 -23 -129 -23q-114 0 -166 46t-52 145h100q0 -56 25 -76.5t93 -20.5q54 0 79 14q23 12 30 42q5 20 5 72v453h104zM592 735h-101l-75 73l-74 -73h-103l130 127h93z" />
    <glyph glyph-name="jcircumflex" unicode="&#x135;" horiz-adv-x="230" 
d="M293 540h-101l-75 73l-74 -73h-103l130 127h93zM-52 -190v83h39q49 0 64.5 19t15.5 79v495h99v-522q0 -102 -66 -135q-38 -19 -111 -19h-41z" />
    <glyph glyph-name="Kcommaaccent" unicode="&#x136;" horiz-adv-x="624" 
d="M620 0h-152l-284 277v-277h-104v667h103v-279l295 279h140l-358 -331zM370 -42v-35q0 -47 -10 -75t-37 -55l-40 -40l-62 61q30 28 36 35t11 17q10 18 10 57v35h92z" />
    <glyph glyph-name="kcommaaccent" unicode="&#x137;" horiz-adv-x="518" 
d="M513 0h-131l-216 229v-229h-100v697h99v-404l217 193h129l-252 -223zM335 -42v-35q0 -47 -10 -75t-37 -55l-40 -40l-62 61q30 28 36 35t11 17q10 18 10 57v35h92z" />
    <glyph glyph-name="Lacute" unicode="&#x139;" horiz-adv-x="525" 
d="M519 0h-439v667h104v-574h335v-93zM326 862l-136 -126h-111l136 126h111z" />
    <glyph glyph-name="lacute" unicode="&#x13a;" horiz-adv-x="263" 
d="M260 78v-83h-27q-84 0 -121 28q-46 35 -46 123v551h99v-520q0 -36 2.5 -52.5t9.5 -26.5q14 -20 59 -20h24zM314 862l-136 -126h-111l136 126h111z" />
    <glyph glyph-name="Lcommaaccent" unicode="&#x13b;" horiz-adv-x="525" 
d="M519 0h-439v667h104v-574h335v-93zM346 -42v-35q0 -47 -10 -75t-37 -55l-40 -40l-62 61q30 28 36 35t11 17q10 18 10 57v35h92z" />
    <glyph glyph-name="lcommaaccent" unicode="&#x13c;" horiz-adv-x="266" 
d="M259 78v-83h-27q-84 0 -121 28q-46 35 -46 123v551h99v-520q0 -36 2.5 -52.5t9.5 -26.5q14 -20 59 -20h24zM202 -42v-35q0 -47 -10 -75t-37 -55l-40 -40l-62 61q30 28 36 35t11 17q10 18 10 57v35h92z" />
    <glyph glyph-name="Lcaron" unicode="&#x13d;" horiz-adv-x="525" 
d="M519 0h-439v667h104v-574h335v-93zM399 667v-34q0 -48 -10 -76t-37 -54l-41 -41l-61 61q30 29 36 35.5t11 16.5q10 19 10 58v34h92z" />
    <glyph glyph-name="lcaron" unicode="&#x13e;" horiz-adv-x="359" 
d="M353 697v-34q0 -48 -10 -76t-37 -54l-41 -41l-61 61q30 29 36 35.5t11 16.5q10 19 10 58v34h92zM260 78v-83h-27q-84 0 -121 28q-46 35 -46 123v551h99v-520q0 -36 2.5 -52.5t9.5 -26.5q14 -20 59 -20h24z" />
    <glyph glyph-name="Ldot" unicode="&#x13f;" horiz-adv-x="525" 
d="M519 0h-439v667h104v-574h335v-93zM394 396q54 0 54 -53q0 -54 -54 -54q-53 0 -53 54q0 28 12.5 40.5t40.5 12.5z" />
    <glyph glyph-name="ldot" unicode="&#x140;" horiz-adv-x="346" 
d="M285 395q55 0 55 -53q0 -54 -55 -54q-53 0 -53 54q0 28 12.5 40.5t40.5 12.5zM260 78v-83h-27q-84 0 -121 28q-46 35 -46 123v551h99v-520q0 -36 2.5 -52.5t9.5 -26.5q14 -20 59 -20h24z" />
    <glyph glyph-name="Lslash" unicode="&#x141;" horiz-adv-x="584" 
d="M578 0h-439v235l-55 -53l-66 64l121 119v302h104v-213l61 60l65 -64l-126 -124v-233h335v-93z" />
    <glyph glyph-name="lslash" unicode="&#x142;" horiz-adv-x="295" 
d="M292 -5h-27q-84 0 -121 28q-46 35 -46 123v95l-40 -41l-65 60l105 108v329h99v-243l45 46l64 -62l-109 -111v-150q0 -36 2.5 -52.5t9.5 -26.5q14 -20 59 -20h24v-83z" />
    <glyph glyph-name="Nacute" unicode="&#x143;" horiz-adv-x="657" 
d="M578 0h-108l-292 500v-500h-98v667h107l293 -496v496h98v-667zM455 862l-136 -126h-111l136 126h111z" />
    <glyph glyph-name="nacute" unicode="&#x144;" horiz-adv-x="545" 
d="M484 0h-99v256v42q0 36 -4 54t-14 30q-20 23 -80 23q-90 0 -112 -62q-7 -19 -8.5 -39t-1.5 -79v-225h-99v486h88v-43q51 51 144 51q125 0 164 -69q12 -22 17 -50.5t5 -76.5v-32v-266zM401 667l-136 -126h-111l136 126h111z" />
    <glyph glyph-name="Ncommaaccent" unicode="&#x145;" horiz-adv-x="657" 
d="M578 0h-108l-292 500v-500h-98v667h107l293 -496v496h98v-667zM375 -42v-35q0 -47 -10 -75t-37 -55l-40 -40l-62 61q30 28 36 35t11 17q10 18 10 57v35h92z" />
    <glyph glyph-name="ncommaaccent" unicode="&#x146;" horiz-adv-x="545" 
d="M484 0h-99v256v42q0 36 -4 54t-14 30q-20 23 -80 23q-90 0 -112 -62q-7 -19 -8.5 -39t-1.5 -79v-225h-99v486h88v-43q51 51 144 51q125 0 164 -69q12 -22 17 -50.5t5 -76.5v-32v-266zM323 -42v-35q0 -47 -10 -75t-37 -55l-40 -40l-62 61q30 28 36 35t11 17q10 18 10 57
v35h92z" />
    <glyph glyph-name="Ncaron" unicode="&#x147;" horiz-adv-x="657" 
d="M578 0h-108l-292 500v-500h-98v667h107l293 -496v496h98v-667zM506 863l-130 -127h-93l-130 127h102l75 -72l73 72h103z" />
    <glyph glyph-name="ncaron" unicode="&#x148;" horiz-adv-x="545" 
d="M484 0h-99v256v42q0 36 -4 54t-14 30q-20 23 -80 23q-90 0 -112 -62q-7 -19 -8.5 -39t-1.5 -79v-225h-99v486h88v-43q51 51 144 51q125 0 164 -69q12 -22 17 -50.5t5 -76.5v-32v-266zM452 667l-130 -127h-93l-130 127h102l75 -72l73 72h103z" />
    <glyph glyph-name="Eng" unicode="&#x14a;" horiz-adv-x="657" 
d="M320 -109q29 -3 69 -3q51 0 70.5 19t19.5 70v23l-301 500v-500h-98v667h107l291 -486v486h100v-681v-19q0 -161 -190 -161q-39 0 -68 4v81z" />
    <glyph glyph-name="eng" unicode="&#x14b;" horiz-adv-x="545" 
d="M154 443q51 51 144 51q125 0 164 -69q12 -22 17 -50.5t5 -76.5v-32v-298q0 -162 -184 -162q-24 0 -48 3v81q20 -2 49 -2q47 0 65.5 19.5t18.5 70.5v278v42q0 36 -4 54t-13 30q-21 23 -80 23q-91 0 -113 -62q-7 -19 -8.5 -39t-1.5 -79v-225h-99v486h88v-43z" />
    <glyph glyph-name="Omacron" unicode="&#x14c;" horiz-adv-x="675" 
d="M336 674q128 0 190 -44q54 -38 71 -119q10 -51 10 -176q0 -126 -12 -182q-18 -81 -72 -119q-62 -42 -186 -42q-127 0 -189 45q-54 38 -71 121q-10 51 -10 176t10 176q16 81 70 120q62 44 189 44zM336 580q-80 0 -117 -27q-34 -25 -43 -83q-6 -36 -6 -137q0 -105 7 -143
q10 -56 43 -79q36 -24 117 -24q75 0 111 24q35 24 46 80q9 43 9 143q0 107 -9 150q-11 54 -46 75q-34 21 -112 21zM509 783h-350v72h350v-72z" />
    <glyph glyph-name="omacron" unicode="&#x14d;" horiz-adv-x="558" 
d="M280 494q121 0 176 -54q31 -31 43 -84q8 -41 8 -113q0 -82 -11 -126q-12 -44 -40 -70q-55 -55 -176 -55q-66 0 -109 14q-41 13 -68 41q-31 30 -43 83q-8 41 -8 113q0 82 11 126q12 44 40 71q28 28 70.5 41t106.5 13zM280 406q-58 0 -86 -17q-26 -16 -35 -53
q-7 -28 -7 -93q0 -64 7 -92q9 -37 35 -53q28 -17 86 -17t86 17q26 16 34 53q7 28 7 92q0 65 -7 94q-9 37 -35 52q-28 17 -85 17zM455 578h-350v73h350v-73z" />
    <glyph glyph-name="Obreve" unicode="&#x14e;" horiz-adv-x="675" 
d="M336 674q128 0 190 -44q54 -38 71 -119q10 -51 10 -176q0 -126 -12 -182q-18 -81 -72 -119q-62 -42 -186 -42q-127 0 -189 45q-54 38 -71 121q-10 51 -10 176t10 176q16 81 70 120q62 44 189 44zM336 580q-80 0 -117 -27q-34 -25 -43 -83q-6 -36 -6 -137q0 -105 7 -143
q10 -56 43 -79q36 -24 117 -24q75 0 111 24q35 24 46 80q9 43 9 143q0 107 -9 150q-11 54 -46 75q-34 21 -112 21zM479 867q0 -78 -36 -105q-32 -24 -109 -24q-87 0 -118 32q-27 28 -27 97h67q0 -39 16 -53t62 -14q45 0 61 13q18 15 18 54h66z" />
    <glyph glyph-name="obreve" unicode="&#x14f;" horiz-adv-x="558" 
d="M280 494q121 0 176 -54q31 -31 43 -84q8 -41 8 -113q0 -82 -11 -126q-12 -44 -40 -70q-55 -55 -176 -55q-66 0 -109 14q-41 13 -68 41q-31 30 -43 83q-8 41 -8 113q0 82 11 126q12 44 40 71q28 28 70.5 41t106.5 13zM280 406q-58 0 -86 -17q-26 -16 -35 -53
q-7 -28 -7 -93q0 -64 7 -92q9 -37 35 -53q28 -17 86 -17t86 17q26 16 34 53q7 28 7 92q0 65 -7 94q-9 37 -35 52q-28 17 -85 17zM424 667q0 -78 -36 -105q-32 -24 -109 -24q-87 0 -118 32q-27 28 -27 97h67q0 -39 16 -53t62 -14q45 0 61 13q18 15 18 54h66z" />
    <glyph glyph-name="Ohungarumlaut" unicode="&#x150;" horiz-adv-x="675" 
d="M336 674q128 0 190 -44q54 -38 71 -119q10 -51 10 -176q0 -126 -12 -182q-18 -81 -72 -119q-62 -42 -186 -42q-127 0 -189 45q-54 38 -71 121q-10 51 -10 176t10 176q16 81 70 120q62 44 189 44zM336 580q-80 0 -117 -27q-34 -25 -43 -83q-6 -36 -6 -137q0 -105 7 -143
q10 -56 43 -79q36 -24 117 -24q75 0 111 24q35 24 46 80q9 43 9 143q0 107 -9 150q-11 54 -46 75q-34 21 -112 21zM593 865l-126 -126h-102l127 126h101zM412 865l-126 -126h-102l127 126h101z" />
    <glyph glyph-name="ohungarumlaut" unicode="&#x151;" horiz-adv-x="558" 
d="M280 494q121 0 176 -54q31 -31 43 -84q8 -41 8 -113q0 -82 -11 -126q-12 -44 -40 -70q-55 -55 -176 -55q-66 0 -109 14q-41 13 -68 41q-31 30 -43 83q-8 41 -8 113q0 82 11 126q12 44 40 71q28 28 70.5 41t106.5 13zM280 406q-58 0 -86 -17q-26 -16 -35 -53
q-7 -28 -7 -93q0 -64 7 -92q9 -37 35 -53q28 -17 86 -17t86 17q26 16 34 53q7 28 7 92q0 65 -7 94q-9 37 -35 52q-28 17 -85 17zM521 667l-126 -126h-102l126 126h102zM340 667l-126 -126h-102l126 126h102z" />
    <glyph glyph-name="Racute" unicode="&#x154;" horiz-adv-x="655" 
d="M614 0h-123l-120 182q-30 47 -42.5 62t-24.5 22q-10 6 -23 8t-48 2h-49v-276h-104v667h230q94 0 137 -9q65 -12 96 -51q36 -45 36 -134q0 -175 -157 -189zM184 370h156q53 0 74.5 3t35.5 13q28 19 28 84q0 51 -17 75q-15 21 -51 26q-22 4 -86 4h-140v-205zM460 862
l-136 -126h-111l136 126h111z" />
    <glyph glyph-name="racute" unicode="&#x155;" horiz-adv-x="457" 
d="M446 344h-95q0 38 -21 51q-17 11 -57 11q-49 0 -73 -23q-20 -19 -27.5 -56t-7.5 -116v-211h-99v486h89v-45q48 53 136 53q83 0 121 -41q34 -37 34 -109zM381 667l-136 -126h-111l136 126h111z" />
    <glyph glyph-name="Rcommaaccent" unicode="&#x156;" horiz-adv-x="655" 
d="M614 0h-123l-120 182q-30 47 -42.5 62t-24.5 22q-10 6 -23 8t-48 2h-49v-276h-104v667h230q94 0 137 -9q65 -12 96 -51q36 -45 36 -134q0 -175 -157 -189zM184 370h156q53 0 74.5 3t35.5 13q28 19 28 84q0 51 -17 75q-15 21 -51 26q-22 4 -86 4h-140v-205zM373 -42v-35
q0 -47 -10 -75t-37 -55l-40 -40l-62 61q30 28 36 35t11 17q10 18 10 57v35h92z" />
    <glyph glyph-name="rcommaaccent" unicode="&#x157;" horiz-adv-x="457" 
d="M446 344h-95q0 38 -21 51q-17 11 -57 11q-49 0 -73 -23q-20 -19 -27.5 -56t-7.5 -116v-211h-99v486h89v-45q48 53 136 53q83 0 121 -41q34 -37 34 -109zM161 -42v-35q0 -47 -10 -75t-37 -55l-40 -40l-62 61q30 28 36 35t11 17q10 18 10 57v35h92z" />
    <glyph glyph-name="Rcaron" unicode="&#x158;" horiz-adv-x="655" 
d="M614 0h-123l-120 182q-30 47 -42.5 62t-24.5 22q-10 6 -23 8t-48 2h-49v-276h-104v667h230q94 0 137 -9q65 -12 96 -51q36 -45 36 -134q0 -175 -157 -189zM184 370h156q53 0 74.5 3t35.5 13q28 19 28 84q0 51 -17 75q-15 21 -51 26q-22 4 -86 4h-140v-205zM487 863
l-130 -127h-93l-130 127h102l75 -72l73 72h103z" />
    <glyph glyph-name="rcaron" unicode="&#x159;" horiz-adv-x="457" 
d="M446 344h-95q0 38 -21 51q-17 11 -57 11q-49 0 -73 -23q-20 -19 -27.5 -56t-7.5 -116v-211h-99v486h89v-45q48 53 136 53q83 0 121 -41q34 -37 34 -109zM447 667l-130 -127h-93l-130 127h102l75 -72l73 72h103z" />
    <glyph glyph-name="Sacute" unicode="&#x15a;" horiz-adv-x="651" 
d="M486 484q0 65 -50 84q-33 13 -116 13q-104 0 -134 -26q-12 -11 -17 -29t-5 -49q0 -56 33 -72q18 -9 72 -13l147 -5q85 -8 126 -41q52 -43 52 -140q0 -117 -77 -169q-66 -45 -193 -45q-141 0 -202 46q-62 45 -62 145h103q0 -38 14 -58q14 -21 48.5 -30t100.5 -9
q102 0 137 31q27 25 27 84q0 58 -33 75q-19 10 -75 14l-147 5q-83 7 -123 41q-52 43 -52 139q0 117 74 162q60 37 188 37q140 0 202 -45q63 -46 63 -145h-101zM462 862l-136 -126h-111l136 126h111z" />
    <glyph glyph-name="sacute" unicode="&#x15b;" horiz-adv-x="516" 
d="M470 343h-92q0 40 -26 55q-22 13 -74 14h-14q-58 0 -82.5 -13.5t-25.5 -44.5q-1 -46 28 -57q12 -5 63 -7l87 -5q71 -7 101 -39q33 -34 32 -106q-1 -88 -69 -123q-52 -26 -151 -25q-107 1 -154 37q-46 37 -46 115h92q0 -39 23.5 -54t83.5 -16h12q67 0 90 17q21 14 21 50
q1 42 -28 53q-16 6 -72 9q-80 3 -103 7q-53 10 -79 38q-31 33 -30 102q1 87 70 121q50 24 150 23q102 -1 148 -38q45 -36 45 -113zM383 667l-136 -126h-111l136 126h111z" />
    <glyph glyph-name="Scircumflex" unicode="&#x15c;" horiz-adv-x="651" 
d="M486 484q0 65 -50 84q-33 13 -116 13q-104 0 -134 -26q-12 -11 -17 -29t-5 -49q0 -56 33 -72q18 -9 72 -13l147 -5q85 -8 126 -41q52 -43 52 -140q0 -117 -77 -169q-66 -45 -193 -45q-141 0 -202 46q-62 45 -62 145h103q0 -38 14 -58q14 -21 48.5 -30t100.5 -9
q102 0 137 31q27 25 27 84q0 58 -33 75q-19 10 -75 14l-147 5q-83 7 -123 41q-52 43 -52 139q0 117 74 162q60 37 188 37q140 0 202 -45q63 -46 63 -145h-101zM502 735h-101l-75 73l-74 -73h-103l130 127h93z" />
    <glyph glyph-name="scircumflex" unicode="&#x15d;" horiz-adv-x="516" 
d="M470 343h-92q0 40 -26 55q-22 13 -74 14h-14q-58 0 -82.5 -13.5t-25.5 -44.5q-1 -46 28 -57q12 -5 63 -7l87 -5q71 -7 101 -39q33 -34 32 -106q-1 -88 -69 -123q-52 -26 -151 -25q-107 1 -154 37q-46 37 -46 115h92q0 -39 23.5 -54t83.5 -16h12q67 0 90 17q21 14 21 50
q1 42 -28 53q-16 6 -72 9q-80 3 -103 7q-53 10 -79 38q-31 33 -30 102q1 87 70 121q50 24 150 23q102 -1 148 -38q45 -36 45 -113zM445 540h-101l-75 73l-74 -73h-103l130 127h93z" />
    <glyph glyph-name="Scedilla" unicode="&#x15e;" horiz-adv-x="651" 
d="M348 -39q34 -2 51 -23q14 -18 14 -48q0 -81 -86 -81q-47 0 -68 19q-18 18 -18 53h50q0 -15 7.5 -20.5t28.5 -5.5q19 0 25.5 7t6.5 26q0 30 -35 32l-30 1v72q-124 4 -179 50t-55 140h103q0 -38 14 -58q14 -21 48.5 -30t100.5 -9q102 0 137 31q27 25 27 84q0 58 -33 75
q-19 10 -75 14l-147 5q-83 7 -123 41q-52 43 -52 139q0 117 74 162q60 37 188 37q140 0 202 -45q63 -46 63 -145h-101q0 65 -50 84q-33 13 -116 13q-104 0 -134 -26q-12 -11 -17 -29t-5 -49q0 -56 33 -72q18 -9 71 -13l148 -5q85 -8 125 -41q53 -43 53 -140q0 -112 -71 -165
q-61 -45 -175 -48v-32z" />
    <glyph glyph-name="scedilla" unicode="&#x15f;" horiz-adv-x="516" 
d="M279 -39q34 -2 51 -23q14 -18 14 -48q0 -81 -86 -81q-47 0 -68 19q-18 18 -18 53h50q0 -15 7.5 -20.5t28.5 -5.5q19 0 25.5 7t6.5 26q0 29 -35 32q-10 1 -16 1h-14v72q-96 5 -137 41t-41 110h92q0 -39 23.5 -54t83.5 -16h12q67 0 90 17q21 14 21 50q1 42 -28 53
q-16 6 -72 9q-80 3 -103 7q-53 10 -79 37q-31 34 -30 103q1 87 70 121q50 24 150 23q102 -1 148 -38q45 -36 45 -113h-92q0 40 -26 55q-22 13 -74 14h-14q-58 0 -82.5 -13.5t-25.5 -44.5q-1 -46 28 -57q12 -5 63 -7l87 -5q71 -7 101 -39q33 -34 32 -106q-1 -81 -59 -117
q-45 -27 -129 -30v-32z" />
    <glyph glyph-name="Scaron" unicode="&#x160;" horiz-adv-x="651" 
d="M486 484q0 65 -50 84q-33 13 -116 13q-104 0 -134 -26q-12 -11 -17 -29t-5 -49q0 -56 33 -72q18 -9 72 -13l147 -5q85 -8 126 -41q52 -43 52 -140q0 -117 -77 -169q-66 -45 -193 -45q-141 0 -202 46q-62 45 -62 145h103q0 -38 14 -58q14 -21 48.5 -30t100.5 -9
q102 0 137 31q27 25 27 84q0 58 -33 75q-19 10 -75 14l-147 5q-83 7 -123 41q-52 43 -52 139q0 117 74 162q60 37 188 37q140 0 202 -45q63 -46 63 -145h-101zM502 853l-130 -127h-93l-130 127h102l75 -72l73 72h103z" />
    <glyph glyph-name="scaron" unicode="&#x161;" horiz-adv-x="516" 
d="M470 343h-92q0 40 -26 55q-22 13 -74 14h-14q-58 0 -82.5 -13.5t-25.5 -44.5q-1 -46 28 -57q12 -5 63 -7l87 -5q71 -7 101 -39q33 -34 32 -106q-1 -88 -69 -123q-52 -26 -151 -25q-107 1 -154 37q-46 37 -46 115h92q0 -39 23.5 -54t83.5 -16h12q67 0 90 17q21 14 21 50
q1 42 -28 53q-16 6 -72 9q-80 3 -103 7q-53 10 -79 38q-31 33 -30 102q1 87 70 121q50 24 150 23q102 -1 148 -38q45 -36 45 -113zM445 667l-130 -127h-93l-130 127h102l75 -72l73 72h103z" />
    <glyph glyph-name="Tcommaaccent" unicode="&#x162;" horiz-adv-x="550" 
d="M533 575h-206v-575h-103v575h-206v92h515v-92zM322 -42v-35q0 -47 -10 -75t-37 -55l-40 -40l-62 61q30 28 36 35t11 17q10 18 10 57v35h92z" />
    <glyph glyph-name="tcommaaccent" unicode="&#x163;" horiz-adv-x="345" 
d="M323 79v-84h-49q-86 0 -125 31q-47 36 -47 123v254h-79v83h79v181h99v-181h122v-83h-122v-225q0 -36 2.5 -52t10.5 -26q15 -21 65 -21h44zM268 -42v-35q0 -47 -10 -75t-37 -55l-40 -40l-62 61q30 28 36 35t11 17q10 18 10 57v35h92z" />
    <glyph glyph-name="Tcaron" unicode="&#x164;" horiz-adv-x="550" 
d="M533 575h-206v-575h-103v575h-206v92h515v-92zM452 863l-130 -127h-93l-130 127h102l75 -72l73 72h103z" />
    <glyph glyph-name="tcaron" unicode="&#x165;" horiz-adv-x="494" 
d="M472 697v-34q0 -48 -10 -76t-37 -54l-40 -41l-62 61q30 29 36 35.5t11 16.5q10 19 10 58v34h92zM323 79v-84h-49q-86 0 -125 31q-47 36 -47 123v254h-79v83h79v181h99v-181h122v-83h-122v-225q0 -36 2.5 -52t10.5 -26q15 -21 65 -21h44z" />
    <glyph glyph-name="Tbar" unicode="&#x166;" horiz-adv-x="550" 
d="M440 297h-113v-297h-103v297h-113v91h113v187h-206v92h515v-92h-206v-187h113v-91z" />
    <glyph glyph-name="tbar" unicode="&#x167;" horiz-adv-x="345" 
d="M323 79v-84h-49q-86 0 -125 31q-47 36 -47 123v58h-79v83h79v113h-79v83h79v181h99v-181h122v-83h-122v-113h122v-83h-122v-29q0 -36 2.5 -52t10.5 -26q15 -21 65 -21h44z" />
    <glyph glyph-name="Utilde" unicode="&#x168;" horiz-adv-x="652" 
d="M577 667v-332q0 -111 -2 -143q-7 -111 -85 -161q-61 -39 -164 -39q-118 0 -181 52q-62 50 -68 148q-2 32 -2 143v332h104v-332q0 -114 4 -145q7 -56 37 -79q31 -24 106 -24q76 0 108 24q29 22 36 79q4 30 4 145v332h103zM521 796l-39 -20q-65 -33 -105 -33q-31 0 -58 17
l-32 20q-14 7 -27 7q-18 0 -45 -14l-59 -29l-35 64l73 37q37 16 67 16q33 0 63 -18q31 -19 32 -19q14 -7 27 -7q20 0 48 14l56 29z" />
    <glyph glyph-name="utilde" unicode="&#x169;" horiz-adv-x="545" 
d="M470 0h-88v44q-52 -52 -145 -52q-134 0 -169 83q-10 25 -13 51.5t-3 94.5v265h100v-256v-41q0 -36 4 -54.5t14 -29.5q20 -23 79 -23q90 0 112 62q7 19 8.5 38t1.5 79v225h99v-486zM474 603l-39 -20q-65 -33 -105 -33q-31 0 -58 17l-32 20q-14 7 -27 7q-18 0 -45 -14
l-59 -29l-35 64l73 37q37 16 67 16q33 0 63 -18l32 -20q14 -7 27 -7q20 0 48 15l56 29z" />
    <glyph glyph-name="Umacron" unicode="&#x16a;" horiz-adv-x="652" 
d="M577 667v-332q0 -111 -2 -143q-7 -111 -85 -161q-61 -39 -164 -39q-118 0 -181 52q-62 50 -68 148q-2 32 -2 143v332h104v-332q0 -114 4 -145q7 -56 37 -79q31 -24 106 -24q76 0 108 24q29 22 36 79q4 30 4 145v332h103zM510 783h-350v72h350v-72z" />
    <glyph glyph-name="umacron" unicode="&#x16b;" horiz-adv-x="545" 
d="M470 0h-88v44q-52 -52 -145 -52q-134 0 -169 83q-10 25 -13 51.5t-3 94.5v265h100v-256v-41q0 -36 4 -54.5t14 -29.5q20 -23 79 -23q90 0 112 62q7 19 8.5 38t1.5 79v225h99v-486zM448 578h-350v73h350v-73z" />
    <glyph glyph-name="Ubreve" unicode="&#x16c;" horiz-adv-x="652" 
d="M577 667v-332q0 -111 -2 -143q-7 -111 -85 -161q-61 -39 -164 -39q-118 0 -181 52q-62 50 -68 148q-2 32 -2 143v332h104v-332q0 -114 4 -145q7 -56 37 -79q31 -24 106 -24q76 0 108 24q29 22 36 79q4 30 4 145v332h103zM480 867q0 -78 -36 -105q-32 -24 -109 -24
q-87 0 -118 32q-27 28 -27 97h67q0 -39 16 -53t62 -14q45 0 61 13q18 15 18 54h66z" />
    <glyph glyph-name="ubreve" unicode="&#x16d;" horiz-adv-x="545" 
d="M470 0h-88v44q-52 -52 -145 -52q-134 0 -169 83q-10 25 -13 51.5t-3 94.5v265h100v-256v-41q0 -36 4 -54.5t14 -29.5q20 -23 79 -23q90 0 112 62q7 19 8.5 38t1.5 79v225h99v-486zM418 667q0 -78 -36 -105q-32 -24 -109 -24q-87 0 -118 32q-27 28 -27 97h67q0 -39 16 -53
t62 -14q45 0 61 13q18 15 18 54h66z" />
    <glyph glyph-name="Uring" unicode="&#x16e;" horiz-adv-x="652" 
d="M577 667v-332q0 -111 -2 -143q-7 -111 -85 -161q-61 -39 -164 -39q-118 0 -181 52q-62 50 -68 148q-2 32 -2 143v332h104v-332q0 -114 4 -145q7 -56 37 -79q31 -24 106 -24q76 0 108 24q29 22 36 79q4 30 4 145v332h103zM325 912q69 0 96 -31q23 -26 23 -83
q0 -67 -31 -94q-28 -24 -88 -24q-68 0 -96 32q-23 28 -23 86q0 65 31 91q28 23 88 23zM325 857q-36 0 -47 -15q-9 -12 -9 -45q0 -37 11.5 -49.5t44.5 -12.5q37 0 48 16q9 12 9 46q0 36 -11 48t-46 12z" />
    <glyph glyph-name="uring" unicode="&#x16f;" horiz-adv-x="545" 
d="M470 0h-88v44q-52 -52 -145 -52q-134 0 -169 83q-10 25 -13 51.5t-3 94.5v265h100v-256v-41q0 -36 4 -54.5t14 -29.5q20 -23 79 -23q90 0 112 62q7 19 8.5 38t1.5 79v225h99v-486zM268 740q69 0 96 -31q23 -26 23 -84q0 -66 -31 -93q-28 -24 -88 -24q-68 0 -96 32
q-23 28 -23 85q0 66 31 92q28 23 88 23zM268 685q-36 0 -47 -15q-9 -12 -9 -46q0 -37 11.5 -49t44.5 -12q37 0 48 15q9 13 9 46q0 37 -11.5 49t-45.5 12z" />
    <glyph glyph-name="Uhungarumlaut" unicode="&#x170;" horiz-adv-x="652" 
d="M577 667v-332q0 -111 -2 -143q-7 -111 -85 -161q-61 -39 -164 -39q-118 0 -181 52q-62 50 -68 148q-2 32 -2 143v332h104v-332q0 -114 4 -145q7 -56 37 -79q31 -24 106 -24q76 0 108 24q29 22 36 79q4 30 4 145v332h103zM593 865l-126 -126h-102l127 126h101zM412 865
l-126 -126h-102l127 126h101z" />
    <glyph glyph-name="uhungarumlaut" unicode="&#x171;" horiz-adv-x="545" 
d="M470 0h-88v44q-52 -52 -145 -52q-134 0 -169 83q-10 25 -13 51.5t-3 94.5v265h100v-256v-41q0 -36 4 -54.5t14 -29.5q20 -23 79 -23q90 0 112 62q7 19 8.5 38t1.5 79v225h99v-486zM509 666l-126 -126h-102l126 126h102zM328 666l-126 -126h-102l126 126h102z" />
    <glyph glyph-name="Uogonek" unicode="&#x172;" horiz-adv-x="652" 
d="M331 -8h-6q-118 0 -181 52q-61 51 -67 148q-2 32 -2 143v332h104v-332q0 -109 4 -140q7 -58 37 -82q32 -26 106 -26q76 0 108 25q29 24 36 81q4 30 4 142v332h103v-332q0 -111 -2 -143q-5 -81 -52 -134q-24 -26 -80 -62q-44 -28 -59 -45q-21 -23 -21 -54q0 -62 83 -62
q13 0 32 2v-68q-26 -5 -52 -5q-68 0 -107 33t-39 92q0 64 51 103z" />
    <glyph glyph-name="uogonek" unicode="&#x173;" horiz-adv-x="545" 
d="M382 14v30q-52 -52 -145 -52q-134 0 -169 83q-10 25 -13 51.5t-3 94.5v265h100v-256v-41q0 -36 4 -54.5t14 -29.5q20 -23 79 -23q90 0 112 62q7 19 8.5 38t1.5 79v225h99v-486q-48 -25 -68 -48.5t-20 -54.5q0 -36 27 -51q21 -13 56 -12l25 2v-69q-20 -3 -47 -3
q-66 0 -104 33t-38 92q0 80 81 125z" />
    <glyph glyph-name="Wcircumflex" unicode="&#x174;" horiz-adv-x="891" 
d="M855 667l-159 -667h-109l-142 541l-142 -541h-111l-156 667h103l116 -520l137 520h109l137 -520l118 520h99zM622 735h-101l-75 73l-74 -73h-103l130 127h93z" />
    <glyph glyph-name="wcircumflex" unicode="&#x175;" horiz-adv-x="723" 
d="M704 486l-135 -486h-101l-104 379l-105 -379h-104l-136 486h100l93 -370l101 370h99l102 -370l93 370h97zM541 540h-101l-75 73l-74 -73h-103l130 127h93z" />
    <glyph glyph-name="Ycircumflex" unicode="&#x176;" horiz-adv-x="589" 
d="M588 667l-241 -377v-290h-104v290l-241 377h120l175 -284l173 284h118zM472 735h-101l-75 73l-74 -73h-103l130 127h93z" />
    <glyph glyph-name="ycircumflex" unicode="&#x177;" horiz-adv-x="531" 
d="M156 -45q2 -64 101 -64q82 0 104 47q7 16 10 36t5 67q-46 -49 -139 -49q-134 0 -169 83q-10 25 -13 51.5t-3 94.5v265h100v-256v-41q0 -36 4 -54.5t14 -29.5q20 -23 79 -23q90 0 112 62q7 19 8.5 38t1.5 79v225h99v-446q0 -39 -2 -53q-8 -93 -59 -137q-52 -44 -149 -44
q-93 0 -146 35q-56 38 -56 114h98zM449 540h-101l-75 73l-74 -73h-103l130 127h93z" />
    <glyph glyph-name="Zacute" unicode="&#x179;" horiz-adv-x="619" 
d="M559 0h-499v90l375 485h-375v92h499v-90l-375 -484h375v-93zM434 862l-136 -126h-111l136 126h111z" />
    <glyph glyph-name="zacute" unicode="&#x17a;" horiz-adv-x="493" 
d="M447 0h-402v85l278 318h-278v83h402v-84l-276 -316h276v-86zM372 667l-136 -126h-111l136 126h111z" />
    <glyph glyph-name="Zdotaccent" unicode="&#x17b;" horiz-adv-x="619" 
d="M559 0h-499v90l375 485h-375v92h499v-90l-375 -484h375v-93zM309 862q55 0 55 -53q0 -54 -55 -54q-53 0 -53 54q0 28 12.5 40.5t40.5 12.5z" />
    <glyph glyph-name="zdotaccent" unicode="&#x17c;" horiz-adv-x="493" 
d="M447 0h-402v85l278 318h-278v83h402v-84l-276 -316h276v-86zM246 667q55 0 55 -53q0 -54 -55 -54q-53 0 -53 54q0 28 12.5 40.5t40.5 12.5z" />
    <glyph glyph-name="Zcaron" unicode="&#x17d;" horiz-adv-x="619" 
d="M559 0h-499v90l375 485h-375v92h499v-90l-375 -484h375v-93zM476 853l-130 -127h-93l-130 127h102l75 -72l73 72h103z" />
    <glyph glyph-name="zcaron" unicode="&#x17e;" horiz-adv-x="493" 
d="M447 0h-402v85l278 318h-278v83h402v-84l-276 -316h276v-86zM428 667l-130 -127h-93l-130 127h102l75 -72l73 72h103z" />
    <glyph glyph-name="uni018F" unicode="&#x18f;" horiz-adv-x="675" 
d="M75 502q16 91 77 131q62 41 184 41q128 0 190 -44q54 -38 71 -119q10 -51 10 -176q0 -126 -12 -182q-18 -81 -72 -119q-62 -42 -186 -42q-127 0 -189 45q-54 39 -71 121q-10 51 -10 176v53h435q-1 79 -13 116q-14 42 -49 60q-34 17 -104 17q-80 0 -114 -23
q-31 -21 -42 -68zM503 303h-333q1 -86 12 -127q12 -48 47 -68q35 -21 108 -21q71 0 107 21q34 20 47 69q11 40 12 126z" />
    <glyph glyph-name="uni01DD" unicode="&#x1dd;" horiz-adv-x="541" 
d="M52 279h338q0 50 -9 75q-10 30 -37 43q-27 14 -80 14q-52 0 -78 -13q-35 -16 -35 -55h-93q0 90 78 127q50 24 131 24q142 0 190 -77q33 -53 33 -169q0 -84 -14 -133q-18 -60 -64 -90q-50 -33 -142 -33q-99 0 -149 37q-44 33 -59 101q-10 48 -10 149zM150 197
q0 -40 5 -61.5t18 -34.5q26 -26 97 -26q66 0 92.5 27t26.5 95h-239z" />
    <glyph glyph-name="Aringacute" unicode="&#x1fa;" horiz-adv-x="639" 
d="M629 0h-112l-66 177h-269l-64 -177h-108l243 632q-54 19 -54 107q0 65 32 88q27 20 88 20q70 0 96 -27q25 -25 25 -82q0 -89 -55 -107zM319 792q-37 0 -48 -14q-9 -12 -9 -46q0 -36 13 -46q11 -9 45 -9q38 0 48 12q10 11 10 43q0 36 -11.5 48t-47.5 12zM419 266l-102 282
l-102 -282h204zM462 1022l-136 -126h-111l136 126h111z" />
    <glyph glyph-name="aringacute" unicode="&#x1fb;" horiz-adv-x="540" 
d="M479 0h-90v44q-24 -25 -65 -38.5t-91 -13.5q-100 0 -145 39q-44 37 -44 115q0 100 70 134q45 22 134 22h134q0 40 -3.5 57t-14.5 27q-22 23 -95 23q-56 0 -81 -11q-34 -14 -34 -52h-96q0 110 112 138q-17 18 -17 75q0 64 32 88q28 20 89 20q70 0 97 -27q24 -24 24 -81
t-19 -76q54 -18 78.5 -59t24.5 -116v-308zM273 612q-37 0 -48 -15q-9 -13 -9 -47q0 -38 13 -48q12 -10 46 -10q37 0 48 14q9 11 9 44q0 37 -12 49.5t-47 12.5zM383 220h-139q-60 0 -80 -16t-20 -57q0 -40 24 -56t78 -16q93 0 119 41q18 28 18 104zM413 842l-136 -126h-111
l136 126h111z" />
    <glyph glyph-name="AEacute" unicode="&#x1fc;" horiz-adv-x="940" 
d="M875 0h-408v175h-231l-114 -175h-120l446 667h427v-92h-306v-187h296v-92h-296v-203h306v-93zM467 266v261l-171 -261h171zM700 862l-136 -126h-111l136 126h111z" />
    <glyph glyph-name="aeacute" unicode="&#x1fd;" horiz-adv-x="872" 
d="M820 213h-339q0 -79 26 -108q28 -29 100 -29q113 0 114 68h93q0 -152 -210 -152q-126 0 -173 65q-28 -34 -75 -49.5t-119 -15.5q-101 0 -147 37t-46 114q0 99 72 133q44 20 135 20h135q0 40 -5 60t-17 32q-23 21 -93 21q-56 0 -82 -11q-35 -14 -35 -52h-96q0 148 211 148
q130 0 174 -58q49 58 159 58q97 0 146 -35q45 -31 60 -97q12 -49 12 -149zM722 295q0 68 -28 93q-26 24 -93 24q-72 0 -99 -34q-20 -26 -20 -83h240zM387 213h-141q-61 0 -81 -14q-21 -15 -21 -55q0 -38 23.5 -53.5t80.5 -15.5q62 0 92 14q28 13 38 44q8 24 9 80zM584 667
l-136 -126h-111l136 126h111z" />
    <glyph glyph-name="Oslashacute" unicode="&#x1fe;" horiz-adv-x="674" 
d="M484 788l-29 -126q59 -20 89 -49q32 -30 45 -79.5t13 -139.5v-61q-1 -93 -7.5 -144.5t-21.5 -85.5q-50 -113 -227 -113h-15l-33 1l-30 -135l-86 18l30 131q-63 21 -93 52q-30 32 -42 92.5t-11 186.5q0 93 6 144t21 84q27 62 93 89q58 24 150 23h32l30 133zM433 568
l-112 -483q4 -1 11 -1q60 0 91 10.5t48 36.5q16 25 22.5 67t7.5 134v28q0 76 -5.5 113.5t-20.5 60.5t-42 34zM234 99l111 484h-10q-61 0 -92 -10.5t-49 -37.5q-16 -25 -21.5 -66.5t-6.5 -133.5q-1 -90 4.5 -134t20.5 -67q15 -24 43 -35zM429 862l-136 -126h-111l136 126h111
z" />
    <glyph glyph-name="oslashacute" unicode="&#x1ff;" horiz-adv-x="555" 
d="M437 556l-31 -81q57 -31 77 -80q19 -43 19 -119v-33q0 -83 -14 -130q-12 -41 -39 -68q-28 -28 -69 -41t-107 -13q-28 0 -44 2l-35 -95l-85 30l34 88q-40 22 -59 48q-21 26 -29 67.5t-8 115.5q1 81 12.5 125t40.5 73q29 28 70 41t107 13q28 0 43 -1l34 88zM373 384
l-110 -303h9h6q56 0 80 11q26 12 35.5 44t9.5 108q1 66 -5 93.5t-25 46.5zM289 410h-9h-3q-56 -1 -81 -13q-27 -12 -38 -44.5t-11 -106.5q-1 -11 -1 -16q0 -54 7 -80t25 -42q81 219 111 302zM389 667l-136 -126h-111l136 126h111z" />
    <glyph glyph-name="Scommaaccent" unicode="&#x218;" horiz-adv-x="651" 
d="M486 484q0 65 -50 84q-33 13 -116 13q-104 0 -134 -26q-12 -11 -17 -29t-5 -49q0 -56 33 -72q18 -9 72 -13l147 -5q85 -8 126 -41q52 -43 52 -140q0 -117 -77 -169q-66 -45 -193 -45q-141 0 -202 46q-62 45 -62 145h103q0 -38 14 -58q14 -21 48.5 -30t100.5 -9
q102 0 137 31q27 25 27 84q0 58 -33 75q-19 10 -75 14l-147 5q-83 7 -123 41q-52 43 -52 139q0 117 74 162q60 37 188 37q140 0 202 -45q63 -46 63 -145h-101zM370 -42v-35q0 -47 -10 -75t-37 -55l-40 -40l-62 61q30 28 36 35t11 17q10 18 10 57v35h92z" />
    <glyph glyph-name="scommaaccent" unicode="&#x219;" horiz-adv-x="516" 
d="M470 343h-92q0 40 -26 55q-22 13 -74 14h-14q-58 0 -82.5 -13.5t-25.5 -44.5q-1 -46 28 -57q12 -5 63 -7l87 -5q71 -7 101 -39q33 -34 32 -106q-1 -88 -69 -123q-52 -26 -151 -25q-107 1 -154 37q-46 37 -46 115h92q0 -39 23.5 -54t83.5 -16h12q67 0 90 17q21 14 21 50
q1 42 -28 53q-16 6 -72 9q-80 3 -103 7q-53 10 -79 38q-31 33 -30 102q1 87 70 121q50 24 150 23q102 -1 148 -38q45 -36 45 -113zM312 -42v-35q0 -47 -10 -75t-37 -55l-40 -40l-62 61q30 28 36 35t11 17q10 18 10 57v35h92z" />
    <glyph glyph-name="uni021A" unicode="&#x21a;" horiz-adv-x="550" 
d="M533 575h-206v-575h-103v575h-206v92h515v-92zM322 -42v-35q0 -47 -10 -75t-37 -55l-40 -40l-62 61q30 28 36 35t11 17q10 18 10 57v35h92z" />
    <glyph glyph-name="uni021B" unicode="&#x21b;" horiz-adv-x="345" 
d="M323 79v-84h-49q-86 0 -125 31q-47 36 -47 123v254h-79v83h79v181h99v-181h122v-83h-122v-225q0 -36 2.5 -52t10.5 -26q15 -21 65 -21h44zM268 -42v-35q0 -47 -10 -75t-37 -55l-40 -40l-62 61q30 28 36 35t11 17q10 18 10 57v35h92z" />
    <glyph glyph-name="uni0259" unicode="&#x259;" horiz-adv-x="541" 
d="M52 279h338q0 50 -9 75q-10 30 -37 43q-27 14 -80 14q-52 0 -78 -13q-35 -16 -35 -55h-93q0 90 78 127q50 24 131 24q142 0 190 -77q33 -53 33 -169q0 -84 -14 -133q-18 -60 -64 -90q-50 -33 -142 -33q-99 0 -149 37q-44 33 -59 101q-10 48 -10 149zM150 197
q0 -40 5 -61.5t18 -34.5q26 -26 97 -26q66 0 92.5 27t26.5 95h-239z" />
    <glyph glyph-name="uni02C9" unicode="&#x2c9;" horiz-adv-x="434" 
d="M392 578h-350v73h350v-73z" />
    <glyph glyph-name="uni037E" unicode="&#x37e;" horiz-adv-x="231" 
d="M118 494q62 0 62 -61q0 -33 -18 -49q-16 -15 -44 -15q-33 0 -49 19q-13 16 -13 45q0 61 62 61zM162 118v-99q0 -48 -10.5 -76.5t-36.5 -54.5l-41 -39l-63 59q31 30 37 36.5t11 15.5q11 20 11 59v99h92z" />
    <glyph glyph-name="tonos" unicode="&#x384;" horiz-adv-x="604" 
d="M347 541h-93v176h93v-176z" />
    <glyph glyph-name="dieresistonos" unicode="&#x385;" horiz-adv-x="561" 
d="M327 541h-93v176h93v-176zM416 682q55 0 55 -53q0 -54 -55 -54q-53 0 -53 54q0 28 12.5 40.5t40.5 12.5zM142 682q55 0 55 -53q0 -54 -55 -54q-53 0 -53 54q0 28 12.5 40.5t40.5 12.5z" />
    <glyph glyph-name="Alphatonos" unicode="&#x386;" horiz-adv-x="639" 
d="M630 0h-113l-65 177h-270l-64 -177h-108l258 667h105zM420 267l-102 281l-103 -281h205zM167 541h-93v176h93v-176z" />
    <glyph glyph-name="uni0387" unicode="&#x387;" horiz-adv-x="231" 
d="M116 399q62 0 62 -62q0 -32 -18 -48q-15 -15 -44 -15q-32 0 -48 19q-14 16 -14 44q0 62 62 62z" />
    <glyph glyph-name="Epsilontonos" unicode="&#x388;" horiz-adv-x="664" 
d="M599 0h-449v667h449v-92h-346v-187h336v-92h-336v-203h346v-93zM96 541h-93v176h93v-176z" />
    <glyph glyph-name="Etatonos" unicode="&#x389;" horiz-adv-x="727" 
d="M648 0h-103v295h-292v-295h-104v667h104v-279h292v279h103v-667zM96 541h-93v176h93v-176z" />
    <glyph glyph-name="Iotatonos" unicode="&#x38a;" horiz-adv-x="333" 
d="M253 0h-104v667h104v-667zM96 541h-93v176h93v-176z" />
    <glyph glyph-name="Omicrontonos" unicode="&#x38c;" horiz-adv-x="737" 
d="M398 674q128 0 190 -44q54 -38 71 -119q10 -51 10 -176q0 -126 -12 -182q-18 -81 -72 -119q-62 -42 -186 -42q-127 0 -189 45q-54 38 -71 121q-10 51 -10 176t10 176q16 81 70 120q62 44 189 44zM398 580q-79 0 -112 -19q-35 -19 -45 -73q-9 -43 -9 -155q0 -106 9 -149
q11 -54 46 -76q34 -21 112 -21t111 20q35 20 46 74q9 43 9 153q0 105 -9 148q-11 55 -46 76q-35 22 -112 22zM96 541h-93v176h93v-176z" />
    <glyph glyph-name="Upsilontonos" unicode="&#x38e;" horiz-adv-x="711" 
d="M710 667l-241 -377v-290h-104v290l-241 377h120l175 -284l173 284h118zM96 541h-93v176h93v-176z" />
    <glyph glyph-name="Omegatonos" unicode="&#x38f;" horiz-adv-x="721" 
d="M166 93q-39 33 -49 106q-5 39 -5 137q0 125 10 175q16 81 70 119q62 44 189 44t190 -44q54 -38 70 -118q11 -51 11 -176q0 -110 -9 -153q-11 -61 -46 -90h55v-93h-244v91q47 4 73 14.5t40 30.5q16 23 21 57q6 42 6 142q0 108 -9 151q-12 54 -46 74t-112 20
q-77 0 -112 -22q-35 -21 -46 -76q-8 -42 -8 -147q0 -98 5 -136.5t21 -62.5q14 -21 40 -31t74 -14v-91h-243v93h54zM92 541h-93v176h93v-176z" />
    <glyph glyph-name="iotadieresistonos" unicode="&#x390;" horiz-adv-x="234" 
d="M220 0h-11q-47 0 -72.5 5.5t-40.5 18.5q-30 25 -30 93v369h99v-359q0 -24 8 -33q9 -9 34 -9h13v-85zM162 541h-93v176h93v-176zM251 682q55 0 55 -53q0 -54 -55 -54q-53 0 -53 54q0 28 12.5 40.5t40.5 12.5zM-23 682q55 0 55 -53q0 -54 -55 -54q-53 0 -53 54
q0 28 12.5 40.5t40.5 12.5z" />
    <glyph glyph-name="Alpha" unicode="&#x391;" horiz-adv-x="639" 
d="M630 0h-113l-65 177h-270l-64 -177h-108l258 667h105zM420 267l-102 281l-103 -281h205z" />
    <glyph glyph-name="Beta" unicode="&#x392;" horiz-adv-x="632" 
d="M515 344q35 -21 49.5 -55t14.5 -94q-1 -125 -74 -167q-26 -16 -67.5 -22t-118.5 -6h-239v667h233q74 0 103.5 -2t52.5 -8q58 -15 82 -59q22 -37 23 -102q1 -114 -59 -152zM179 388h134q73 0 91 1t31 7q21 10 30.5 30t9.5 56q0 61 -31 79q-14 8 -43 11t-95 3h-127v-187z
M179 92h132q71 0 91.5 1.5t35.5 7.5q22 10 32 31.5t10 60.5q0 70 -33 89q-14 8 -43 11t-93 3h-132v-204z" />
    <glyph glyph-name="Gamma" unicode="&#x393;" horiz-adv-x="525" 
d="M519 574h-335v-574h-104v667h439v-93z" />
    <glyph glyph-name="uni0394" unicode="&#x394;" horiz-adv-x="642" 
d="M631 0h-620l258 667h105zM486 91l-167 457l-167 -457h334z" />
    <glyph glyph-name="Epsilon" unicode="&#x395;" horiz-adv-x="594" 
d="M529 0h-449v667h449v-92h-346v-187h336v-92h-336v-203h346v-93z" />
    <glyph glyph-name="Zeta" unicode="&#x396;" horiz-adv-x="619" 
d="M559 0h-499v90l375 485h-375v92h499v-90l-375 -484h375v-93z" />
    <glyph glyph-name="Eta" unicode="&#x397;" horiz-adv-x="658" 
d="M579 0h-103v295h-292v-295h-104v667h104v-279h292v279h103v-667z" />
    <glyph glyph-name="Theta" unicode="&#x398;" horiz-adv-x="675" 
d="M460 387v-84h-247v84h247zM336 674q128 0 190 -44q54 -38 71 -119q10 -51 10 -176q0 -126 -12 -182q-18 -81 -72 -119q-62 -42 -186 -42q-127 0 -189 45q-54 38 -71 121q-10 51 -10 176t10 176q16 81 70 120q62 44 189 44zM336 580q-80 0 -117 -27q-34 -25 -43 -83
q-6 -36 -6 -137q0 -105 7 -143q10 -56 43 -79q36 -24 117 -24q75 0 111 24q35 24 46 80q9 43 9 143q0 107 -9 150q-11 54 -46 75q-34 21 -112 21z" />
    <glyph glyph-name="Iota" unicode="&#x399;" horiz-adv-x="263" 
d="M184 0h-104v667h104v-667z" />
    <glyph glyph-name="Kappa" unicode="&#x39a;" horiz-adv-x="624" 
d="M620 0h-152l-284 277v-277h-104v667h103v-279l295 279h140l-358 -331z" />
    <glyph glyph-name="Lambda" unicode="&#x39b;" horiz-adv-x="639" 
d="M630 0h-113l-199 548l-200 -548h-108l258 667h105z" />
    <glyph glyph-name="Mu" unicode="&#x39c;" horiz-adv-x="824" 
d="M744 0h-97v525l-186 -525h-100l-185 525v-525h-96v667h136l197 -544l196 544h135v-667z" />
    <glyph glyph-name="Nu" unicode="&#x39d;" horiz-adv-x="657" 
d="M578 0h-108l-292 500v-500h-98v667h107l293 -496v496h98v-667z" />
    <glyph glyph-name="Xi" unicode="&#x39e;" horiz-adv-x="579" 
d="M514 575h-449v92h449v-92zM504 296h-429v92h429v-92zM514 0h-449v93h449v-93z" />
    <glyph glyph-name="Omicron" unicode="&#x39f;" horiz-adv-x="675" 
d="M336 674q128 0 190 -44q54 -38 71 -119q10 -51 10 -176q0 -126 -12 -182q-18 -81 -72 -119q-62 -42 -186 -42q-127 0 -189 45q-54 38 -71 121q-10 51 -10 176t10 176q16 81 70 120q62 44 189 44zM336 580q-79 0 -112 -19q-35 -19 -45 -73q-9 -43 -9 -155q0 -106 9 -149
q11 -54 46 -76q34 -21 112 -21t111 20q35 20 46 74q9 43 9 153q0 105 -9 148q-11 55 -46 76q-35 22 -112 22z" />
    <glyph glyph-name="Pi" unicode="&#x3a0;" horiz-adv-x="658" 
d="M579 0h-103v575h-292v-575h-104v667h499v-667z" />
    <glyph glyph-name="Rho" unicode="&#x3a1;" horiz-adv-x="617" 
d="M80 667h231q94 0 136 -8q65 -13 96 -52q36 -45 36 -134q0 -90 -36 -136q-31 -40 -95 -53q-44 -9 -137 -9h-127v-275h-104v667zM433 379q43 21 43 92q0 72 -43 93q-25 11 -86 11h-38h-125v-207h125h35q65 0 89 11z" />
    <glyph glyph-name="Sigma" unicode="&#x3a3;" horiz-adv-x="619" 
d="M559 0h-499v91l217 250l-217 236v90h499v-92h-367l215 -234l-215 -248h367v-93z" />
    <glyph glyph-name="Tau" unicode="&#x3a4;" horiz-adv-x="550" 
d="M533 575h-206v-575h-103v575h-206v92h515v-92z" />
    <glyph glyph-name="Upsilon" unicode="&#x3a5;" horiz-adv-x="589" 
d="M588 667l-241 -377v-290h-104v290l-241 377h120l175 -284l173 284h118z" />
    <glyph glyph-name="Phi" unicode="&#x3a6;" horiz-adv-x="708" 
d="M400 666v-72q103 -8 153 -31q54 -25 76 -79q20 -50 21 -150q1 -97 -20 -148q-23 -55 -77 -80q-52 -25 -153 -32v-72h-94v72q-101 7 -152 32q-55 25 -77 80q-22 51 -21 148q0 99 21 150q22 54 76 79q51 23 153 30v73h94zM400 504v-341q50 1 77 8.5t44 24.5
q18 17 25.5 48.5t7.5 89.5q0 56 -7.5 88t-25.5 49q-17 17 -44.5 24.5t-76.5 8.5zM306 163v341q-50 -1 -77 -8.5t-44 -23.5q-18 -18 -25.5 -49.5t-7.5 -88.5q0 -58 7.5 -89.5t25.5 -48.5q17 -17 44 -24.5t77 -8.5z" />
    <glyph glyph-name="Chi" unicode="&#x3a7;" horiz-adv-x="609" 
d="M586 0h-118l-165 263l-164 -263h-117l222 340l-216 327h118l159 -252l158 252h118l-216 -327z" />
    <glyph glyph-name="Psi" unicode="&#x3a8;" horiz-adv-x="803" 
d="M725 666v-187q0 -95 -9.5 -153t-31.5 -96q-32 -56 -90 -79q-52 -20 -149 -24v-127h-98v127q-96 6 -146 25q-43 16 -75 53q-35 39 -48 99q-11 54 -11 148v214h98v-176q0 -115 6.5 -156.5t27.5 -67.5q40 -47 148 -49v449h98v-449q107 2 147 49q23 27 29 76q6 43 6 148v176
h98z" />
    <glyph glyph-name="uni03A9" unicode="&#x3a9;" horiz-adv-x="676" 
d="M121 93q-39 33 -49 106q-5 39 -5 137q0 125 10 175q16 81 70 119q62 44 189 44t190 -44q54 -38 70 -118q11 -51 11 -176q0 -110 -9 -153q-11 -61 -46 -90h55v-93h-244v91q47 4 73 14.5t40 30.5q16 23 21 57q6 42 6 142q0 108 -9 151q-12 54 -46 74t-112 20
q-77 0 -112 -22q-35 -21 -46 -76q-8 -42 -8 -147q0 -98 5 -136.5t21 -62.5q14 -21 40 -31t74 -14v-91h-243v93h54z" />
    <glyph glyph-name="Iotadieresis" unicode="&#x3aa;" horiz-adv-x="263" 
d="M184 0h-103v667h103v-667zM241 863q54 0 54 -54t-54 -54t-54 54q0 28 13 41t41 13zM25 863q54 0 54 -54t-54 -54t-54 54q0 28 13 41t41 13z" />
    <glyph glyph-name="Upsilondieresis" unicode="&#x3ab;" horiz-adv-x="589" 
d="M588 667l-241 -377v-290h-104v290l-241 377h120l175 -284l173 284h118zM403 862q54 0 54 -53q0 -54 -54 -54q-53 0 -53 54q0 28 12.5 40.5t40.5 12.5zM187 862q55 0 55 -53q0 -54 -55 -54q-53 0 -53 54q0 28 12.5 40.5t40.5 12.5z" />
    <glyph glyph-name="alphatonos" unicode="&#x3ac;" horiz-adv-x="587" 
d="M429 100q-22 -49 -39 -67q-42 -42 -137 -41q-78 1 -121 23q-45 24 -64 79q-18 52 -19 148q0 97 19 151q20 56 64 81q44 23 122 23q94 0 136 -42q18 -18 39 -67l19 101h93l-51 -244l52 -245h-94zM393 244q-16 66 -35 107q-15 35 -36.5 47.5t-64.5 11.5q-46 -1 -69 -15
q-24 -14 -34 -48.5t-11 -102.5q0 -103 27 -136q24 -29 87 -30q41 -1 63.5 12.5t37.5 47.5q8 17 22 60t13 46zM299 541h-93v176h93v-176z" />
    <glyph glyph-name="epsilontonos" unicode="&#x3ad;" horiz-adv-x="530" 
d="M482 144q0 -91 -73 -127q-49 -25 -136 -25q-120 0 -170 34q-51 35 -51 115q0 46 11 70q14 29 50 43q-29 15 -42 40t-13 64q0 80 60 111q49 25 155 25q101 0 152 -33q57 -37 57 -118h-94q0 66 -117 66q-74 0 -100 -17q-20 -14 -20 -43q0 -37 31 -48q24 -9 84 -9h44v-83
h-44q-81 0 -102 -13q-19 -12 -19 -51q0 -41 33 -55q28 -12 93 -12q55 0 82 12q35 16 35 54h94zM314 541h-93v176h93v-176z" />
    <glyph glyph-name="etatonos" unicode="&#x3ae;" horiz-adv-x="552" 
d="M154 433q18 28 60 45q40 16 92 16q125 0 164 -69q12 -22 17 -50.5t5 -76.5v-32v-457h-99v447q0 70 -2 83q-4 35 -23 49q-21 17 -73 17q-90 0 -112 -62q-7 -19 -8.5 -39t-1.5 -79v-225h-99v348q0 35 -12 46q-11 8 -42 8v84q9 2 20 2q48 0 73 -10q32 -14 41 -45zM328 541
h-93v176h93v-176z" />
    <glyph glyph-name="iotatonos" unicode="&#x3af;" horiz-adv-x="234" 
d="M214 0h-11q-47 0 -72.5 5.5t-40.5 18.5q-30 25 -30 93v369h99v-359q0 -24 8 -33q9 -9 34 -9h13v-85zM156 541h-93v176h93v-176z" />
    <glyph glyph-name="upsilondieresistonos" unicode="&#x3b0;" horiz-adv-x="535" 
d="M157 486v-232v-39q0 -70 12 -92q22 -39 98 -39t98 39q12 21 12 131v232h99v-227q0 -110 -12 -158q-14 -60 -58 -84q-44 -25 -139 -25q-93 0 -138 26q-44 26 -59 86q-12 48 -12 155v227h99zM310 541h-93v176h93v-176zM399 682q55 0 55 -53q0 -54 -55 -54q-53 0 -53 54
q0 28 12.5 40.5t40.5 12.5zM125 682q55 0 55 -53q0 -54 -55 -54q-53 0 -53 54q0 28 12.5 40.5t40.5 12.5z" />
    <glyph glyph-name="alpha" unicode="&#x3b1;" horiz-adv-x="587" 
d="M429 100q-22 -49 -39 -67q-42 -42 -137 -41q-78 1 -121 23q-45 24 -64 79q-18 52 -19 148q0 97 19 151q20 56 64 81q44 23 122 23q94 0 136 -42q18 -18 39 -67l19 101h93l-51 -244l52 -245h-94zM393 244q-16 66 -35 107q-15 35 -36.5 47.5t-64.5 11.5q-46 -1 -69 -15
q-24 -14 -34 -48.5t-11 -102.5q0 -103 27 -136q24 -29 87 -30q41 -1 63.5 12.5t37.5 47.5q8 17 22 60t13 46z" />
    <glyph glyph-name="beta" unicode="&#x3b2;" horiz-adv-x="568" 
d="M428 380q47 -22 66 -67q16 -40 16 -111q-1 -116 -59 -166q-52 -44 -155 -44q-48 0 -79.5 10t-54.5 32v-225h-96v695q0 51 5.5 81t18.5 52q45 77 190 78q118 0 168 -48q44 -43 45 -133q1 -67 -17 -104q-15 -33 -48 -50zM228 419h48q77 0 101 24q20 22 20 81q0 64 -28 85
q-26 18 -90 18q-50 0 -73 -11q-25 -11 -34.5 -39t-9.5 -88v-243q0 -67 10 -101q12 -36 39 -51q26 -13 78 -14q72 -1 99 30q24 27 25 90q1 56 -10 83q-11 29 -39.5 40.5t-87.5 11.5h-48v84z" />
    <glyph glyph-name="gamma" unicode="&#x3b3;" horiz-adv-x="500" 
d="M24 496q58 0 86 -23q23 -19 41 -67l106 -281l138 370h100l-191 -491v-195h-96v195l-145 368q-8 22 -18.5 30.5t-29.5 8.5h-13v84z" />
    <glyph glyph-name="delta" unicode="&#x3b4;" horiz-adv-x="558" 
d="M387 615h-88q-28 0 -28 -24q0 -13 33 -35l62 -42l69 -48q36 -28 52 -71q20 -53 20 -147q0 -86 -11 -130q-12 -45 -40 -71q-55 -55 -176 -55q-66 0 -109 14q-41 13 -68 41q-31 30 -43 83q-8 42 -8 114q0 81 12 126q11 43 38 69q26 26 60.5 38t83.5 12q4 0 7 -1l-21 16
q-28 20 -40 37q-16 24 -16 57q0 59 43 84q26 15 64 15h104v-82zM407 243q0 65 -7 94q-9 37 -35 52q-28 17 -85 17q-58 0 -86 -17q-26 -16 -35 -53q-7 -28 -7 -93q0 -64 7 -92q9 -37 35 -53q28 -17 86 -17t86 17q26 16 34 53q7 28 7 92z" />
    <glyph glyph-name="epsilon" unicode="&#x3b5;" horiz-adv-x="530" 
d="M482 144q0 -91 -73 -127q-49 -25 -136 -25q-120 0 -170 34q-51 35 -51 115q0 46 11 70q14 29 50 43q-29 15 -42 40t-13 64q0 80 60 111q49 25 155 25q101 0 152 -33q57 -37 57 -118h-94q0 66 -117 66q-74 0 -100 -17q-20 -14 -20 -43q0 -37 31 -48q24 -9 84 -9h44v-83
h-44q-81 0 -102 -13q-19 -12 -19 -51q0 -41 33 -55q28 -12 93 -12q55 0 82 12q35 16 35 54h94z" />
    <glyph glyph-name="zeta" unicode="&#x3b6;" horiz-adv-x="544" 
d="M299 -191q80 86 81 151q1 24 -16 32q-14 6 -56 6h-13q-99 0 -150 22q-96 41 -94 171q2 113 83 230q71 102 195 196h-221v81h348v-76q-185 -163 -250 -258q-57 -84 -59 -169q-1 -44 12 -67q14 -24 46 -34.5t95 -10.5l31 -1q83 0 116 -30q30 -25 29 -79q-1 -80 -67 -164
h-110z" />
    <glyph glyph-name="eta" unicode="&#x3b7;" horiz-adv-x="552" 
d="M154 433q18 28 60 45q40 16 92 16q125 0 164 -69q12 -22 17 -50.5t5 -76.5v-32v-457h-99v447q0 70 -2 83q-4 35 -23 49q-21 17 -73 17q-90 0 -112 -62q-7 -19 -8.5 -39t-1.5 -79v-225h-99v348q0 35 -12 46q-11 8 -42 8v84q9 2 20 2q48 0 73 -10q32 -14 41 -45z" />
    <glyph glyph-name="theta" unicode="&#x3b8;" horiz-adv-x="550" 
d="M496 334q0 -102 -3 -145t-13 -74q-38 -123 -207 -123q-170 0 -208 126q-9 32 -12 71.5t-3 144.5q0 128 5.5 173.5t25.5 80.5q50 86 192 86q143 0 192 -86q21 -37 26 -89q5 -46 5 -165zM401 383q-1 101 -13 141q-10 34 -36.5 49t-78.5 15q-55 0 -82 -17q-24 -15 -33 -47
q-11 -37 -13 -141h256zM145 301q1 -74 4 -109.5t11 -55.5q12 -31 38.5 -44.5t74.5 -13.5q51 0 78 15q24 14 35 43q8 20 11 55.5t4 109.5h-256z" />
    <glyph glyph-name="iota" unicode="&#x3b9;" horiz-adv-x="234" 
d="M214 0h-11q-47 0 -72.5 5.5t-40.5 18.5q-30 25 -30 93v369h99v-359q0 -24 8 -33q9 -9 34 -9h13v-85z" />
    <glyph glyph-name="kappa" unicode="&#x3ba;" horiz-adv-x="516" 
d="M511 0h-131l-214 220v-220h-100v486h100v-204l216 204h125l-248 -232z" />
    <glyph glyph-name="lambda" unicode="&#x3bb;" horiz-adv-x="500" 
d="M493 85v-85q-14 -2 -27 -2q-53 0 -80 24q-23 20 -41 66l-104 264l-125 -352h-104l182 473l-39 103q-10 24 -19.5 31t-31.5 7h-9v83q10 2 23 2q57 0 87 -26q24 -20 41 -66q33 -87 194 -489q8 -19 19 -26t34 -7z" />
    <glyph glyph-name="uni03BC" unicode="&#x3bc;" horiz-adv-x="551" 
d="M484 0h-90v42q-50 -50 -138 -50q-26 0 -53 6.5t-40 16.5v-206h-97v677h99v-256v-35q0 -40 3.5 -58.5t13.5 -30.5q20 -23 81 -23q90 0 112 61q7 19 8.5 38t1.5 79v225h99v-486z" />
    <glyph glyph-name="nu" unicode="&#x3bd;" horiz-adv-x="507" 
d="M493 486l-190 -486h-99l-191 486h106l136 -369l135 369h103z" />
    <glyph glyph-name="xi" unicode="&#x3be;" horiz-adv-x="544" 
d="M455 312h-124q-57 0 -84 -4.5t-43 -15.5q-34 -24 -34 -97q0 -50 18 -74q15 -21 45 -28.5t99 -7.5q55 0 82 -4t46 -13q46 -24 46 -90q0 -39 -19 -85.5t-50 -83.5h-109q32 38 53 75q25 46 25 78q0 24 -14 31t-65 7q-96 0 -145 13q-58 15 -84 54q-27 41 -27 121q0 70 20 109
q22 43 72 60q-31 15 -46 34q-29 37 -29 101q0 92 57 125h-66v80h387v-84h-107q-53 0 -81.5 -4.5t-47.5 -15.5q-44 -26 -44 -96q0 -72 45 -91q15 -6 35 -8t65 -2h124v-84z" />
    <glyph glyph-name="omicron" unicode="&#x3bf;" horiz-adv-x="558" 
d="M280 494q121 0 176 -54q31 -31 43 -84q8 -41 8 -113q0 -82 -11 -126q-12 -44 -40 -70q-55 -55 -176 -55q-66 0 -109 14q-41 13 -68 41q-31 30 -43 83q-8 41 -8 113q0 82 11 126q12 44 40 71q28 28 70.5 41t106.5 13zM280 406q-58 0 -86 -17q-26 -16 -35 -53
q-7 -28 -7 -93q0 -64 7 -92q9 -37 35 -53q28 -17 86 -17t86 17q26 16 34 53q7 28 7 92q0 65 -7 94q-9 37 -35 52q-28 17 -85 17z" />
    <glyph glyph-name="rho" unicode="&#x3c1;" horiz-adv-x="560" 
d="M66 -191v429q0 86 10 127q11 47 39 75q55 54 172 54q118 0 172 -54q28 -27 38.5 -70t10.5 -128q0 -74 -12 -119q-16 -61 -57 -93q-49 -38 -138 -38q-48 0 -80.5 11.5t-55.5 37.5v-232h-99zM287 405q-57 0 -83 -17q-25 -16 -33 -54q-6 -27 -6 -91q0 -66 12 -100
q12 -35 41 -49q28 -13 80 -13q47 0 71 16q22 15 31 48t9 98q0 64 -6 90q-7 38 -32 54q-27 18 -84 18z" />
    <glyph glyph-name="uni03C2" unicode="&#x3c2;" horiz-adv-x="524" 
d="M382 334q-3 45 -30 60q-23 13 -81 12q-54 -1 -79 -13q-27 -14 -37 -46.5t-10 -102.5q0 -73 11 -104q11 -34 40.5 -46t99.5 -13h32q82 -1 116 -30q29 -26 29 -79q-1 -79 -67 -163h-110q81 86 82 150q1 24 -16 31q-15 7 -57 7h-16q-76 0 -117.5 11t-69.5 40
q-29 28 -40.5 72.5t-11.5 123.5q0 94 21 147q21 54 69 78q47 23 130 23q119 0 168 -53q18 -21 25 -41t9 -64h-90z" />
    <glyph glyph-name="sigma" unicode="&#x3c3;" horiz-adv-x="558" 
d="M463 403q25 -17 34.5 -53.5t9.5 -110.5q0 -81 -12 -123q-11 -43 -39 -70q-55 -54 -176 -54q-65 0 -109 14q-40 13 -68 41q-31 30 -42 81q-9 40 -9 111q0 80 12 123q11 43 39 70q34 32 81 43t148 11h209v-83h-78zM280 398q-58 0 -86 -17q-26 -16 -35 -52q-7 -27 -7 -89
t7 -90q9 -36 35 -52q28 -17 86 -17t86 17q27 16 35 52q7 28 7 90t-7 90q-9 36 -35 51q-28 17 -86 17z" />
    <glyph glyph-name="tau" unicode="&#x3c4;" horiz-adv-x="454" 
d="M270 403v-276q0 -24 8 -33q9 -9 34 -9h13v-85h-12q-46 0 -71.5 5.5t-40.5 18.5q-30 25 -30 93v286h-162v83h435v-83h-174z" />
    <glyph glyph-name="upsilon" unicode="&#x3c5;" horiz-adv-x="537" 
d="M158 486v-232v-39q0 -70 12 -92q22 -39 98 -39t98 39q12 21 12 131v232h99v-227q0 -110 -12 -158q-14 -60 -58 -84q-44 -25 -139 -25q-93 0 -138 26q-44 26 -59 86q-12 48 -12 155v227h99z" />
    <glyph glyph-name="phi" unicode="&#x3c6;" horiz-adv-x="681" 
d="M246 404q-41 -7 -62 -22q-21 -16 -30 -46.5t-9 -90.5q0 -57 8.5 -87t28.5 -46q32 -26 107 -28v411h43q107 0 158 -14q46 -12 78 -43q30 -29 43 -73.5t13 -118.5q0 -92 -21 -142q-22 -52 -75 -77q-50 -24 -144 -29v-189h-95v189q-94 5 -144 28q-52 25 -74 77
q-21 51 -21 144q0 79 16 126q13 41 42 68q25 23 57 35t81 16v-88zM384 84q83 2 114 33q17 17 24 47.5t7 82.5q0 51 -7 81t-24 47q-31 31 -114 33v-324z" />
    <glyph glyph-name="chi" unicode="&#x3c7;" horiz-adv-x="520" 
d="M395 486h105l-178 -329l119 -224q15 -29 25.5 -36t36.5 -7v-84l-33 -1q-47 0 -73 22q-20 17 -42 62l-94 181l-137 -261h-108l188 347l-115 215q-18 33 -48 33h-9v84l24 1q45 0 69 -13.5t43 -49.5q47 -87 96 -184z" />
    <glyph glyph-name="psi" unicode="&#x3c8;" horiz-adv-x="685" 
d="M621 486v-235q0 -82 -10.5 -120.5t-40.5 -68.5q-29 -29 -73 -44.5t-110 -19.5v-189h-95v189q-66 4 -110 19.5t-73 44.5q-32 32 -42 75q-9 37 -9 114v235h94v-216q0 -80 9 -114q10 -36 37.5 -51t93.5 -20v401h95v-401q85 5 114 38q15 18 20.5 48.5t5.5 98.5v216h94z" />
    <glyph glyph-name="omega" unicode="&#x3c9;" horiz-adv-x="714" 
d="M357 38q-31 -46 -111 -46q-126 0 -169 99q-25 56 -25 161q0 74 17 121q15 42 45 72q50 47 154 50v-91q-44 -5 -68 -18q-26 -15 -37 -46q-12 -31 -12 -88q0 -88 17 -123q22 -47 83 -47q35 0 46 17.5t11 75.5v113h98v-113q0 -56 10 -73q12 -20 48 -20q67 0 88 60
q11 34 11 110q0 88 -31 120q-24 26 -86 32v91q104 -3 154 -50q32 -32 47 -77.5t15 -115.5q0 -122 -35 -182q-46 -78 -158 -78q-80 0 -112 46z" />
    <glyph glyph-name="iotadieresis" unicode="&#x3ca;" horiz-adv-x="232" 
d="M218 0h-30q-76 0 -102 30q-22 26 -22 87v369h99v-359q0 -24 8 -33q9 -9 34 -9h13v-85zM28 672q24 0 40 -17q13 -15 13 -35q0 -24 -17 -39q-16 -14 -36 -14q-23 0 -38 17q-14 16 -14 36q0 23 17 39q15 13 35 13zM199 672q23 0 39 -17q13 -15 13 -35q0 -24 -17 -40
q-15 -13 -35 -13q-24 0 -39 17q-14 15 -14 36q0 23 17 39q15 13 36 13z" />
    <glyph glyph-name="upsilondieresis" unicode="&#x3cb;" horiz-adv-x="535" 
d="M153 486v-238q0 -64 2.5 -89t9.5 -38q21 -39 100 -39t100 39q7 13 9.5 38.5t2.5 88.5v238h95v-234q0 -102 -9 -141.5t-39 -68.5q-51 -50 -159 -50q-109 0 -160 50q-31 30 -39 74q-8 39 -8 136v234h95zM182 672q24 0 40 -17q13 -15 13 -35q0 -24 -17 -39q-16 -14 -36 -14
q-23 0 -38 17q-14 16 -14 36q0 23 17 39q15 13 35 13zM353 672q23 0 39 -17q13 -15 13 -35q0 -24 -17 -40q-15 -13 -35 -13q-24 0 -39 17q-14 15 -14 36q0 23 17 39q15 13 36 13z" />
    <glyph glyph-name="omicrontonos" unicode="&#x3cc;" horiz-adv-x="558" 
d="M280 494q121 0 176 -54q31 -31 43 -84q8 -41 8 -113q0 -82 -11 -126q-12 -44 -40 -70q-55 -55 -176 -55q-66 0 -109 14q-41 13 -68 41q-31 30 -43 83q-8 41 -8 113q0 82 11 126q12 44 40 71q28 28 70.5 41t106.5 13zM280 406q-58 0 -86 -17q-26 -16 -35 -53
q-7 -28 -7 -93q0 -64 7 -92q9 -37 35 -53q28 -17 86 -17t86 17q26 16 34 53q7 28 7 92q0 65 -7 94q-9 37 -35 52q-28 17 -85 17zM326 541h-93v176h93v-176z" />
    <glyph glyph-name="upsilontonos" unicode="&#x3cd;" horiz-adv-x="537" 
d="M158 486v-232v-39q0 -70 12 -92q22 -39 98 -39t98 39q12 21 12 131v232h99v-227q0 -110 -12 -158q-14 -60 -58 -84q-44 -25 -139 -25q-93 0 -138 26q-44 26 -59 86q-12 48 -12 155v227h99zM315 541h-93v176h93v-176z" />
    <glyph glyph-name="omegatonos" unicode="&#x3ce;" horiz-adv-x="714" 
d="M357 38q-31 -46 -111 -46q-126 0 -169 99q-25 56 -25 161q0 74 17 121q15 42 45 72q50 47 154 50v-91q-44 -5 -68 -18q-26 -15 -37 -46q-12 -31 -12 -88q0 -88 17 -123q22 -47 83 -47q35 0 46 17.5t11 75.5v113h98v-113q0 -56 10 -73q12 -20 48 -20q67 0 88 60
q11 34 11 110q0 88 -31 120q-24 26 -86 32v91q104 -3 154 -50q32 -32 47 -77.5t15 -115.5q0 -122 -35 -182q-46 -78 -158 -78q-80 0 -112 46zM405 541h-93v176h93v-176z" />
    <glyph glyph-name="uni0400" unicode="&#x400;" horiz-adv-x="594" 
d="M529 0h-449v667h449v-92h-346v-187h336v-92h-336v-203h346v-93zM406 736h-110l-135 126h110z" />
    <glyph glyph-name="afii10023" unicode="&#x401;" horiz-adv-x="594" 
d="M529 0h-449v667h449v-92h-346v-187h336v-92h-336v-203h346v-93zM417 862q54 0 54 -53q0 -54 -54 -54q-53 0 -53 54q0 28 12.5 40.5t40.5 12.5zM201 862q55 0 55 -53q0 -54 -55 -54q-53 0 -53 54q0 28 12.5 40.5t40.5 12.5z" />
    <glyph glyph-name="afii10051" unicode="&#x402;" horiz-adv-x="724" 
d="M302 388q61 24 138 24q108 0 163 -55q30 -30 41.5 -76t11.5 -133q0 -133 -11 -187q-12 -61 -47 -96q-29 -29 -74 -41.5t-121 -12.5v93q66 -1 100 19q31 19 42 60q9 32 9 98l-1 68q0 59 -4 85.5t-16 44.5q-25 40 -101 40q-74 0 -130 -26v-293h-103v575h-178v92h485v-92
h-204v-187z" />
    <glyph glyph-name="afii10052" unicode="&#x403;" horiz-adv-x="526" 
d="M80 667h439v-93h-335v-574h-104v667zM432 862l-136 -126h-111l136 126h111z" />
    <glyph glyph-name="afii10053" unicode="&#x404;" horiz-adv-x="651" 
d="M590 183q0 -112 -74 -156q-58 -35 -172 -35q-130 0 -193 45q-56 39 -72 121q-11 52 -11 176q0 123 11 175q17 82 72 120q64 45 194 45q131 0 189 -46q56 -46 56 -144h-101q0 38 -12 57q-13 21 -45.5 30t-95.5 9q-68 0 -102 -17q-33 -17 -46.5 -55.5t-15.5 -121.5h244v-88
h-244q1 -88 12 -127q13 -47 47 -66q34 -18 105 -18q96 0 127 23q26 20 26 73h101z" />
    <glyph glyph-name="afii10054" unicode="&#x405;" horiz-adv-x="654" 
d="M486 484q0 65 -50 84q-33 13 -116 13q-104 0 -134 -26q-12 -11 -17 -29t-5 -49q0 -56 33 -72q18 -9 72 -13l147 -5q85 -8 126 -41q52 -43 52 -140q0 -117 -77 -169q-66 -45 -193 -45q-141 0 -202 46q-62 45 -62 145h103q0 -38 14 -58q14 -21 48.5 -30t100.5 -9
q102 0 137 31q27 25 27 84q0 58 -33 75q-19 10 -75 14l-147 5q-83 7 -123 41q-52 43 -52 139q0 117 74 162q60 37 188 37q140 0 202 -45q63 -46 63 -145h-101z" />
    <glyph glyph-name="afii10055" unicode="&#x406;" horiz-adv-x="263" 
d="M184 0h-104v667h104v-667z" />
    <glyph glyph-name="afii10056" unicode="&#x407;" horiz-adv-x="263" 
d="M184 0h-103v667h103v-667zM240 862q54 0 54 -53q0 -54 -54 -54q-53 0 -53 54q0 28 12.5 40.5t40.5 12.5zM24 862q55 0 55 -53q0 -54 -55 -54q-53 0 -53 54q0 28 12.5 40.5t40.5 12.5z" />
    <glyph glyph-name="afii10057" unicode="&#x408;" horiz-adv-x="542" 
d="M468 667v-451q0 -63 -4 -85q-13 -83 -85 -116q-49 -23 -129 -23q-114 0 -166 46t-52 145h100q0 -56 25 -76.5t93 -20.5q54 0 79 14q23 12 30 42q5 20 5 72v453h104z" />
    <glyph glyph-name="afii10058" unicode="&#x409;" horiz-adv-x="1008" 
d="M462 2v571h-157l-95 -418q-15 -68 -35 -101q-21 -34 -58.5 -48t-110.5 -14v95q46 0 75 32q22 25 31 67l109 481h344v-280h145q87 0 129 -9q60 -14 90 -52q33 -45 33 -131q0 -90 -36 -135q-31 -39 -96 -52q-42 -8 -137 -8h-232zM815 104q44 21 44 91q0 68 -44 89
q-24 11 -89 11h-35h-126v-202h126h39q60 0 85 11z" />
    <glyph glyph-name="afii10059" unicode="&#x40a;" horiz-adv-x="1026" 
d="M579 387h140q96 0 137 -8q65 -12 96 -51q36 -44 36 -133q0 -90 -36 -136q-31 -38 -96 -51q-42 -8 -137 -8h-243v295h-292v-295h-104v667h104v-279h292v279h103v-280zM579 93h138h39q61 0 85 11q44 21 44 91q0 68 -44 89q-24 11 -89 11h-35h-138v-202z" />
    <glyph glyph-name="afii10060" unicode="&#x40b;" horiz-adv-x="726" 
d="M655 0h-103v156q0 99 -28 132q-25 30 -91 30q-75 0 -131 -25v-293h-103v575h-178v92h485v-92h-204v-187q61 24 138 24q108 0 163 -55q36 -37 47 -104q5 -35 5 -109v-144z" />
    <glyph glyph-name="afii10061" unicode="&#x40c;" horiz-adv-x="624" 
d="M620 0h-152l-284 277v-277h-104v667h103v-279l295 279h140l-358 -331zM483 862l-136 -126h-111l136 126h111z" />
    <glyph glyph-name="uni040D" unicode="&#x40d;" horiz-adv-x="657" 
d="M578 0h-97v504l-293 -504h-108v667h97v-500l294 500h107v-667zM446 736h-110l-135 126h110z" />
    <glyph glyph-name="afii10062" unicode="&#x40e;" horiz-adv-x="593" 
d="M591 667l-349 -667h-116l116 220l-235 447h118l175 -338l176 338h115zM443 864q0 -78 -36 -105q-32 -24 -109 -24q-87 0 -118 32q-27 28 -27 97h67q0 -39 16 -53t62 -14q45 0 61 13q18 15 18 54h66z" />
    <glyph glyph-name="afii10145" unicode="&#x40f;" horiz-adv-x="658" 
d="M579 0h-200v-117h-100v117h-199v667h104v-574h291v574h104v-667z" />
    <glyph glyph-name="afii10017" unicode="&#x410;" horiz-adv-x="639" 
d="M630 0h-113l-65 177h-270l-64 -177h-108l258 667h105zM420 267l-102 281l-103 -281h205z" />
    <glyph glyph-name="afii10018" unicode="&#x411;" horiz-adv-x="627" 
d="M184 387h145q87 0 129 -9q60 -14 90 -52q33 -45 33 -131q0 -90 -36 -135q-31 -39 -96 -52q-42 -8 -137 -8h-232v667h441v-92h-337v-188zM434 104q44 21 44 91q0 68 -44 89q-24 11 -89 11h-35h-126v-202h126h39q60 0 85 11z" />
    <glyph glyph-name="afii10019" unicode="&#x412;" horiz-adv-x="632" 
d="M515 344q35 -21 49.5 -55t14.5 -94q-1 -125 -74 -167q-26 -16 -67.5 -22t-118.5 -6h-239v667h233q74 0 103.5 -2t52.5 -8q58 -15 82 -59q22 -37 23 -102q1 -114 -59 -152zM179 388h134q73 0 91 1t31 7q21 10 30.5 30t9.5 56q0 61 -31 79q-14 8 -43 11t-95 3h-127v-187z
M179 92h132q71 0 91.5 1.5t35.5 7.5q22 10 32 31.5t10 60.5q0 70 -33 89q-14 8 -43 11t-93 3h-132v-204z" />
    <glyph glyph-name="afii10020" unicode="&#x413;" horiz-adv-x="526" 
d="M80 667h439v-93h-335v-574h-104v667z" />
    <glyph glyph-name="afii10021" unicode="&#x414;" horiz-adv-x="674" 
d="M636 -117h-100v119h-430v-119h-100v210q52 2 76 28q19 21 30 67l114 479h340v-574h70v-210zM463 93v482h-153l-94 -390q-17 -71 -47 -92h294z" />
    <glyph glyph-name="afii10022" unicode="&#x415;" horiz-adv-x="594" 
d="M529 0h-449v667h449v-92h-346v-187h336v-92h-336v-203h346v-93z" />
    <glyph glyph-name="afii10024" unicode="&#x416;" horiz-adv-x="883" 
d="M879 0h-140l-245 281v-281h-103v281l-248 -281h-138l307 337l-307 330h133l253 -276v276h103v-276l253 276h129l-306 -328z" />
    <glyph glyph-name="afii10025" unicode="&#x417;" horiz-adv-x="656" 
d="M485 347q56 -16 77.5 -51t21.5 -110q0 -111 -76 -156q-64 -38 -190 -38q-136 0 -195 44q-61 45 -61 147h101q0 -39 14 -60q14 -19 46.5 -27.5t95.5 -8.5q99 0 134 24q32 23 32 81q0 47 -11 68q-12 22 -44.5 30t-107.5 8h-79v88h79q92 0 124 23q30 22 30 78q0 39 -10 56
q-11 21 -44 29t-104 8q-95 0 -127 -23q-29 -20 -29 -73h-101q0 115 81 158q59 32 176 32q148 0 207 -45q52 -41 52 -130q0 -59 -20 -93q-22 -40 -72 -59z" />
    <glyph glyph-name="afii10026" unicode="&#x418;" horiz-adv-x="657" 
d="M578 0h-97v504l-293 -504h-108v667h97v-500l294 500h107v-667z" />
    <glyph glyph-name="afii10027" unicode="&#x419;" horiz-adv-x="657" 
d="M578 0h-97v504l-293 -504h-108v667h97v-500l294 500h107v-667zM474 866q0 -78 -36 -105q-32 -24 -109 -24q-87 0 -118 32q-27 28 -27 97h67q0 -39 16 -53t62 -14q45 0 61 13q18 15 18 54h66z" />
    <glyph glyph-name="afii10028" unicode="&#x41a;" horiz-adv-x="624" 
d="M620 0h-152l-284 277v-277h-104v667h103v-279l295 279h140l-358 -331z" />
    <glyph glyph-name="afii10029" unicode="&#x41b;" horiz-adv-x="644" 
d="M6 87q46 0 75 32q22 25 31 67l109 481h344v-667h-103v573h-157l-95 -418q-15 -69 -35 -101q-21 -34 -58.5 -48t-110.5 -14v95z" />
    <glyph glyph-name="afii10030" unicode="&#x41c;" horiz-adv-x="824" 
d="M744 0h-97v525l-186 -525h-100l-185 525v-525h-96v667h136l197 -544l196 544h135v-667z" />
    <glyph glyph-name="afii10031" unicode="&#x41d;" horiz-adv-x="658" 
d="M579 0h-103v295h-292v-295h-104v667h104v-279h292v279h103v-667z" />
    <glyph glyph-name="afii10032" unicode="&#x41e;" horiz-adv-x="675" 
d="M336 674q128 0 190 -44q54 -38 71 -119q10 -51 10 -176q0 -126 -12 -182q-18 -81 -72 -119q-62 -42 -186 -42q-127 0 -189 45q-54 38 -71 121q-10 51 -10 176t10 176q16 81 70 120q62 44 189 44zM336 580q-77 0 -112 -22q-34 -21 -45 -76q-9 -43 -9 -149q0 -102 9 -144
q11 -56 46 -79t112 -23q76 0 111 24q35 23 46 78q9 44 9 145q0 105 -9 148q-11 55 -46 76q-35 22 -112 22z" />
    <glyph glyph-name="afii10033" unicode="&#x41f;" horiz-adv-x="658" 
d="M579 0h-104v575h-291v-575h-104v667h499v-667z" />
    <glyph glyph-name="afii10034" unicode="&#x420;" horiz-adv-x="617" 
d="M80 667h231q94 0 136 -8q65 -13 96 -52q36 -45 36 -134q0 -90 -36 -136q-31 -40 -95 -53q-44 -9 -137 -9h-127v-275h-104v667zM433 379q43 21 43 92q0 72 -43 93q-25 11 -86 11h-38h-125v-207h125h35q65 0 89 11z" />
    <glyph glyph-name="afii10035" unicode="&#x421;" horiz-adv-x="651" 
d="M590 183q0 -112 -74 -156q-58 -35 -172 -35q-130 0 -194 45q-55 39 -71 122q-11 51 -11 175t11 175q17 82 72 120q64 45 194 45q131 0 188 -46t57 -144h-101q0 38 -12 57q-14 21 -46 30t-95 9q-75 0 -109 -22q-35 -21 -46 -76q-9 -44 -9 -149t9 -149q11 -54 45 -76
q34 -21 110 -21q96 0 126 23q27 20 27 73h101z" />
    <glyph glyph-name="afii10036" unicode="&#x422;" horiz-adv-x="550" 
d="M533 575h-206v-575h-103v575h-206v92h515v-92z" />
    <glyph glyph-name="afii10037" unicode="&#x423;" horiz-adv-x="593" 
d="M591 667l-349 -667h-116l116 220l-235 447h118l175 -338l176 338h115z" />
    <glyph glyph-name="afii10038" unicode="&#x424;" horiz-adv-x="708" 
d="M400 666v-72q103 -8 153 -31q54 -25 76 -79q20 -50 21 -150q1 -97 -20 -148q-23 -55 -77 -80q-52 -25 -153 -32v-72h-94v72q-101 7 -152 32q-55 25 -77 80q-22 51 -21 148q0 99 21 150q22 54 76 79q51 23 153 30v73h94zM400 504v-341q50 1 77 8.5t44 24.5
q18 17 25.5 48.5t7.5 89.5q0 56 -7.5 88t-25.5 49q-17 17 -44.5 24.5t-76.5 8.5zM306 163v341q-50 -1 -77 -8.5t-44 -23.5q-18 -18 -25.5 -49.5t-7.5 -88.5q0 -58 7.5 -89.5t25.5 -48.5q17 -17 44 -24.5t77 -8.5z" />
    <glyph glyph-name="afii10039" unicode="&#x425;" horiz-adv-x="609" 
d="M586 0h-118l-165 263l-164 -263h-117l222 340l-216 327h118l159 -252l158 252h118l-216 -327z" />
    <glyph glyph-name="afii10040" unicode="&#x426;" horiz-adv-x="669" 
d="M649 -117h-100v117h-469v667h104v-574h291v574h104v-574h70v-210z" />
    <glyph glyph-name="afii10041" unicode="&#x427;" horiz-adv-x="631" 
d="M551 0h-104v270q-69 -24 -152 -24q-117 0 -172 55q-39 37 -50 101q-6 35 -6 111v154h103v-164q0 -90 30.5 -124t114.5 -36q20 0 66.5 8t65.5 16v300h104v-667z" />
    <glyph glyph-name="afii10042" unicode="&#x428;" horiz-adv-x="887" 
d="M807 0h-727v667h104v-574h208v574h104v-574h208v574h103v-667z" />
    <glyph glyph-name="afii10043" unicode="&#x429;" horiz-adv-x="898" 
d="M877 -117h-99v117h-698v667h104v-574h208v574h104v-574h208v574h103v-574h70v-210z" />
    <glyph glyph-name="afii10044" unicode="&#x42a;" horiz-adv-x="712" 
d="M277 387h146q86 0 128 -9q61 -14 90 -52q33 -45 33 -131q0 -90 -36 -135q-31 -39 -96 -52q-42 -8 -136 -8h-232v575h-178v92h281v-280zM528 104q43 21 43 91q0 68 -43 89q-25 11 -90 11h-34h-127v-202h127h38q61 0 86 11z" />
    <glyph glyph-name="afii10045" unicode="&#x42b;" horiz-adv-x="853" 
d="M774 0h-104v667h104v-667zM184 387h128q96 0 137 -8q65 -12 96 -50q36 -45 36 -134q0 -90 -36 -135q-31 -39 -96 -52q-42 -8 -137 -8h-232v667h104v-280zM434 104q44 21 44 91q0 68 -44 89q-24 11 -89 11h-35h-126v-202h126h39q60 0 85 11z" />
    <glyph glyph-name="afii10046" unicode="&#x42c;" horiz-adv-x="619" 
d="M184 387h128q96 0 137 -8q65 -12 96 -50q36 -45 36 -134q0 -90 -36 -135q-31 -39 -96 -52q-42 -8 -137 -8h-232v667h104v-280zM434 104q44 21 44 91q0 68 -44 89q-24 11 -89 11h-35h-126v-202h126h39q60 0 85 11z" />
    <glyph glyph-name="afii10047" unicode="&#x42d;" horiz-adv-x="651" 
d="M63 183h101q0 -38 12 -58q13 -21 45 -29.5t96 -8.5q71 0 104 18q35 19 47 66q11 39 13 126h-239v90h238q-2 78 -14 115q-14 43 -48 61q-34 17 -102 17q-96 0 -127 -24q-26 -20 -26 -72h-101q0 111 74 156q57 34 171 34q129 0 193 -45q56 -38 73 -120q11 -52 11 -175
q0 -124 -11 -176q-17 -82 -72 -121q-64 -45 -193 -45q-131 0 -189 46q-56 46 -56 145z" />
    <glyph glyph-name="afii10048" unicode="&#x42e;" horiz-adv-x="926" 
d="M319 388q1 99 17 150q20 67 75 100q61 36 177 36q127 0 189 -44q54 -38 71 -119q10 -51 10 -176q0 -126 -12 -182q-18 -81 -72 -119q-61 -42 -185 -42q-119 0 -181 39q-55 35 -74 107q-14 52 -15 157h-135v-295h-104v667h104v-279h135zM588 580q-72 0 -107 -20
q-35 -19 -48 -66q-11 -40 -11 -124v-37q2 -109 10 -151q12 -54 46 -75q33 -20 111 -20q73 0 111 30q34 26 45 84q9 42 10 133v23q0 89 -10 131q-13 50 -48 71q-36 21 -109 21z" />
    <glyph glyph-name="afii10049" unicode="&#x42f;" horiz-adv-x="655" 
d="M164 0h-123l192 284q-157 14 -157 189q0 89 36 134q31 39 96 51q43 9 137 9h230v-667h-104v276h-49q-38 0 -52 -2.5t-26 -11.5q-16 -13 -60 -80zM471 575h-140q-60 0 -82.5 -3t-38.5 -12q-33 -21 -33 -90q0 -48 14 -70q12 -18 35.5 -24t88.5 -6h156v205z" />
    <glyph glyph-name="afii10065" unicode="&#x430;" horiz-adv-x="540" 
d="M479 0h-89v44q-24 -25 -65 -38.5t-92 -13.5q-100 0 -145 39q-44 37 -44 115q0 100 71 134q44 22 133 22h134q0 40 -3 57t-14 27q-22 23 -95 23q-56 0 -81 -11q-35 -14 -35 -52h-96q0 89 74 124q51 24 144 24q123 0 170 -61q33 -43 33 -125v-308zM384 220h-140
q-60 0 -80 -16t-20 -57q0 -40 24 -56t78 -16q94 0 120 41q18 28 18 104z" />
    <glyph glyph-name="afii10066" unicode="&#x431;" horiz-adv-x="555" 
d="M157 451q48 46 146 45q76 -1 117 -24q43 -24 62 -79q18 -53 18 -148q0 -82 -11 -126t-38 -72q-52 -55 -169 -55t-169 53q-29 29 -39.5 71t-10.5 126v191q0 61 11 98.5t36 63.5q24 24 58.5 37t87.5 18l19 2q56 5 74 14.5t19 33.5h92q0 -38 -7 -59t-25 -37q-17 -16 -44 -24
t-81 -13q-55 -5 -77 -11.5t-44 -25.5q-11 -13 -15 -23.5t-8 -35.5q-1 -11 -2 -20zM406 244q0 67 -9 100q-10 35 -33 49t-71 15q-55 1 -82 -12q-29 -14 -41.5 -49t-13.5 -105v-14q0 -62 10 -93q11 -32 36.5 -44.5t78.5 -12.5q54 0 78 12q27 14 37 47t10 107z" />
    <glyph glyph-name="afii10067" unicode="&#x432;" horiz-adv-x="538" 
d="M433 253q26 -14 37.5 -39.5t11.5 -68.5q0 -76 -37 -109q-26 -24 -62 -30q-32 -6 -109 -6h-209v488h204q68 0 94.5 -2.5t47.5 -9.5q66 -25 66 -115q0 -82 -44 -108zM371 303q14 14 14 45q0 37 -20 49q-18 10 -65 10h-142v-116h122h10q39 0 55 2t26 10zM158 81h121
q63 0 82 8q26 10 26 57q0 36 -14 49q-11 10 -30.5 13t-73.5 3h-111v-130z" />
    <glyph glyph-name="afii10068" unicode="&#x433;" horiz-adv-x="439" 
d="M435 400h-270v-400h-99v486h369v-86z" />
    <glyph glyph-name="afii10069" unicode="&#x434;" horiz-adv-x="559" 
d="M532 -117h-93v120h-339v-120h-94v205q39 0 61 22q18 19 27 56l76 320h304v-398h58v-205zM375 88v312h-126l-55 -231q-15 -67 -43 -81h224z" />
    <glyph glyph-name="afii10070" unicode="&#x435;" horiz-adv-x="541" 
d="M490 207h-338q0 -49 9 -75q10 -29 37 -43q27 -13 80 -13q51 0 78 13q34 16 35 55h93q0 -91 -78 -128q-50 -24 -131 -24q-142 0 -190 77q-33 53 -33 169q0 84 14 133q18 60 63 90q51 33 143 33q98 0 148 -37q44 -33 59 -101q11 -48 11 -149zM392 290q0 39 -5.5 60.5
t-18.5 34.5q-25 26 -96 26q-67 0 -93 -26.5t-26 -94.5h239z" />
    <glyph glyph-name="afii10072" unicode="&#x436;" horiz-adv-x="732" 
d="M726 0h-122l-188 219v-219h-99v219l-188 -219h-123l221 251l-219 235h119l190 -205v205h99v-205l190 205h116l-218 -233z" />
    <glyph glyph-name="afii10073" unicode="&#x437;" horiz-adv-x="534" 
d="M422 254q33 -13 47 -38.5t14 -74.5q0 -85 -68 -121q-54 -28 -158 -28q-101 0 -152 34q-57 37 -57 118h94q0 -43 44 -56q24 -8 75 -8q74 0 101 15q26 14 26 50q0 28 -9 41q-10 13 -34 18t-80 5h-54v84h54q69 0 92 12q25 13 25 45q0 34 -28 45q-26 10 -94 10q-58 0 -83 -10
q-35 -15 -35 -52h-94q0 90 72 126q50 25 137 25q122 0 172 -34q48 -32 48 -101q0 -38 -12 -62q-13 -27 -43 -43z" />
    <glyph glyph-name="afii10074" unicode="&#x438;" horiz-adv-x="552" 
d="M485 0h-92v347l-223 -347h-103v486h93v-346l223 346h102v-486z" />
    <glyph glyph-name="afii10075" unicode="&#x439;" horiz-adv-x="552" 
d="M485 0h-92v347l-223 -347h-103v486h93v-346l223 346h102v-486zM421 669q0 -78 -36 -105q-32 -24 -109 -24q-87 0 -118 32q-27 28 -27 97h67q0 -39 16 -53t62 -14q45 0 61 13q18 15 18 54h66z" />
    <glyph glyph-name="afii10076" unicode="&#x43a;" horiz-adv-x="516" 
d="M513 0h-132l-215 225v-225h-100v486h100v-197l216 197h129l-252 -227z" />
    <glyph glyph-name="afii10077" unicode="&#x43b;" horiz-adv-x="541" 
d="M474 0h-99v400h-127l-62 -265q-11 -45 -23 -69t-30 -40q-40 -34 -127 -34v91q38 0 56.5 16.5t29.5 60.5l77 326h305v-486z" />
    <glyph glyph-name="afii10078" unicode="&#x43c;" horiz-adv-x="673" 
d="M606 0h-95v334l-130 -334h-92l-129 334v-334h-94v486h126l145 -365l147 365h122v-486z" />
    <glyph glyph-name="afii10079" unicode="&#x43d;" horiz-adv-x="551" 
d="M484 0h-99v207h-220v-207h-99v486h99v-192h220v192h99v-486z" />
    <glyph glyph-name="afii10080" unicode="&#x43e;" horiz-adv-x="558" 
d="M280 494q121 0 176 -54q31 -31 43 -84q8 -41 8 -113q0 -82 -11 -126q-12 -44 -40 -70q-55 -55 -176 -55q-66 0 -109 14q-41 13 -68 41q-31 30 -43 83q-8 41 -8 113q0 82 11 126q12 44 40 71q28 28 70.5 41t106.5 13zM280 406q-58 0 -86 -17q-26 -16 -35 -53
q-7 -28 -7 -93q0 -64 7 -92q9 -37 35 -53q28 -17 86 -17t86 17q26 16 34 53q7 28 7 92q0 65 -7 94q-9 37 -35 52q-28 17 -85 17z" />
    <glyph glyph-name="afii10081" unicode="&#x43f;" horiz-adv-x="551" 
d="M484 0h-99v400h-220v-400h-99v486h418v-486z" />
    <glyph glyph-name="afii10082" unicode="&#x440;" horiz-adv-x="560" 
d="M157 443q54 52 154 51q84 -1 129 -32q41 -28 56 -87q12 -46 12 -133q0 -74 -12 -119q-16 -61 -57 -93q-49 -38 -138 -38q-48 0 -80.5 11.5t-55.5 37.5v-232h-99v677h91v-43zM299 404q-54 0 -81 -13q-29 -14 -41 -48t-12 -100t12 -100t39.5 -48t82.5 -14q46 0 70 16
q22 15 31 47.5t9 98.5q0 97 -24 129q-23 32 -86 32z" />
    <glyph glyph-name="afii10083" unicode="&#x441;" horiz-adv-x="525" 
d="M477 144q0 -152 -204 -152q-145 0 -191 83q-20 35 -26 89q-4 33 -4 81q0 82 13 127q17 59 62 89q51 33 146 33q204 0 204 -151h-94q0 42 -41 56q-22 7 -67 7q-55 0 -82 -16q-23 -15 -32 -46t-9 -100q0 -64 7 -94q9 -37 34 -52q27 -17 82 -17q52 0 75 11q33 14 33 52h94z
" />
    <glyph glyph-name="afii10084" unicode="&#x442;" horiz-adv-x="454" 
d="M444 400h-168v-400h-99v400h-168v86h435v-86z" />
    <glyph glyph-name="afii10085" unicode="&#x443;" horiz-adv-x="496" 
d="M481 486l-259 -676h-103l79 199l-183 477h105l130 -365l126 365h105z" />
    <glyph glyph-name="afii10086" unicode="&#x444;" horiz-adv-x="831" 
d="M465 452q49 42 124 42q124 0 164 -81q26 -52 26 -170q0 -129 -41 -186q-47 -65 -156 -65q-36 0 -68 11.5t-49 30.5v-225h-99v225q-15 -20 -47.5 -31t-74.5 -11q-127 0 -167 81q-25 51 -25 169q0 84 12 130q15 60 54 89q44 33 126 33q42 0 74 -11t48 -31v246h99v-246z
M581 406q-70 0 -95 -39q-23 -36 -23 -124q0 -98 30 -133q26 -29 88 -29q56 0 77.5 35t21.5 127t-20 126q-22 37 -79 37zM251 406q-57 0 -78 -34.5t-21 -128.5q0 -93 19 -125q22 -37 80 -37q70 0 95 39q23 36 23 123q0 99 -30 134q-26 29 -88 29z" />
    <glyph glyph-name="afii10087" unicode="&#x445;" horiz-adv-x="515" 
d="M501 0h-118l-126 182l-129 -182h-113l184 248l-177 238h118l119 -172l123 172h114l-179 -237z" />
    <glyph glyph-name="afii10088" unicode="&#x446;" horiz-adv-x="576" 
d="M543 -117h-93v117h-384v486h99v-399h220v399h99v-399h59v-204z" />
    <glyph glyph-name="afii10089" unicode="&#x447;" horiz-adv-x="531" 
d="M464 0h-99v187q-51 -21 -130 -21q-100 0 -145 45q-26 26 -35 63t-9 119v93h100v-93v-27q0 -59 18 -82q24 -30 86 -30q74 1 115 19v213h99v-486z" />
    <glyph glyph-name="afii10090" unicode="&#x448;" horiz-adv-x="762" 
d="M695 0h-629v486h99v-399h166v399h99v-399h166v399h99v-486z" />
    <glyph glyph-name="afii10091" unicode="&#x449;" horiz-adv-x="784" 
d="M754 -117h-93v117h-595v486h99v-399h166v399h99v-399h166v399h99v-399h59v-204z" />
    <glyph glyph-name="afii10092" unicode="&#x44a;" horiz-adv-x="558" 
d="M187 290h147q56 0 86 -8t49 -28q33 -33 33 -108q0 -77 -34 -110q-16 -16 -36 -23.5t-55 -10.5q-22 -2 -35 -2h-248v403h-99v81h192v-194zM187 81h121q65 0 82 14q15 12 15 50q0 25 -4.5 37t-16.5 18q-19 9 -85 9h-112v-128z" />
    <glyph glyph-name="afii10093" unicode="&#x44b;" horiz-adv-x="715" 
d="M162 290h147q56 0 86 -8t49 -28q33 -33 33 -108q0 -77 -34 -110q-16 -16 -36 -23.5t-55 -10.5q-22 -2 -35 -2h-247v484h92v-194zM162 81h121q65 0 82 14q15 12 15 50q0 25 -4.5 37t-16.5 18q-19 9 -85 9h-112v-128zM655 486v-486h-99v486h99z" />
    <glyph glyph-name="afii10094" unicode="&#x44c;" horiz-adv-x="530" 
d="M162 290h147q56 0 86 -8t49 -28q33 -33 33 -108q0 -77 -34 -110q-16 -16 -36 -23.5t-55 -10.5q-22 -2 -35 -2h-247v484h92v-194zM162 81h121q65 0 82 14q15 12 15 50q0 25 -4.5 37t-16.5 18q-19 9 -85 9h-112v-128z" />
    <glyph glyph-name="afii10095" unicode="&#x44d;" horiz-adv-x="525" 
d="M48 144h94q0 -42 41 -56q22 -7 67 -7q77 0 102 34q20 27 21 94h-163v83h162q-1 66 -30 91q-27 23 -92 23q-52 0 -75 -11q-33 -14 -33 -52h-94q0 151 205 151q144 0 190 -81q20 -34 26 -88q4 -32 4 -80q0 -83 -13 -128q-17 -61 -62 -91q-51 -34 -145 -34q-205 0 -205 152z
" />
    <glyph glyph-name="afii10096" unicode="&#x44e;" horiz-adv-x="776" 
d="M271 294q2 54 13.5 88t35.5 58q29 28 71.5 41t105.5 13q121 0 177 -54q31 -31 42 -84q8 -41 8 -113q0 -82 -11 -125q-12 -45 -39 -71q-56 -55 -177 -55q-65 0 -109 14q-40 13 -68 41q-24 24 -36 61.5t-13 98.5h-106v-207h-99v486h99v-192h106zM497 406q-58 0 -86 -17
q-26 -16 -35 -53q-7 -28 -7 -92q0 -65 7 -93q9 -37 35 -53q28 -17 86 -17t86 17q27 16 35 53q7 28 7 93q0 64 -7 93q-9 37 -35 52q-28 17 -86 17z" />
    <glyph glyph-name="afii10097" unicode="&#x44f;" horiz-adv-x="541" 
d="M475 0h-99v195h-30q-32 0 -44.5 -2.5t-22.5 -9.5q-15 -10 -47 -58l-84 -125h-115l140 202q-59 5 -86 40q-27 33 -27 99q0 97 59 126q37 19 129 19h227v-486zM376 278v123h-104q-47 0 -65.5 -2t-29.5 -8q-20 -12 -20 -53q0 -31 13.5 -43.5t48.5 -13.5l44 -3h113z" />
    <glyph glyph-name="uni0450" unicode="&#x450;" horiz-adv-x="541" 
d="M490 207h-338q0 -49 9 -75q10 -29 37 -43q27 -13 80 -13q51 0 78 13q34 16 35 55h93q0 -91 -78 -128q-50 -24 -131 -24q-142 0 -190 77q-33 53 -33 169q0 84 14 133q18 60 63 90q51 33 143 33q98 0 148 -37q44 -33 59 -101q11 -48 11 -149zM392 290q0 39 -5.5 60.5
t-18.5 34.5q-25 26 -96 26q-67 0 -93 -26.5t-26 -94.5h239zM385 541h-110l-135 126h110z" />
    <glyph glyph-name="afii10071" unicode="&#x451;" horiz-adv-x="541" 
d="M490 207h-338q0 -49 9 -75q10 -29 37 -43q27 -13 80 -13q51 0 78 13q34 16 35 55h93q0 -91 -78 -128q-50 -24 -131 -24q-142 0 -190 77q-33 53 -33 169q0 84 14 133q18 60 63 90q51 33 143 33q98 0 148 -37q44 -33 59 -101q11 -48 11 -149zM392 290q0 39 -5.5 60.5
t-18.5 34.5q-25 26 -96 26q-67 0 -93 -26.5t-26 -94.5h239zM379 667q54 0 54 -53q0 -54 -54 -54q-53 0 -53 54q0 28 12.5 40.5t40.5 12.5zM163 667q55 0 55 -53q0 -54 -55 -54q-53 0 -53 54q0 28 12.5 40.5t40.5 12.5z" />
    <glyph glyph-name="afii10099" unicode="&#x452;" horiz-adv-x="581" 
d="M279 -100q63 0 94 20q30 19 41 64q8 37 8 115v157v42q0 36 -4 54t-14 30q-20 23 -80 23q-90 0 -112 -62q-7 -19 -8.5 -39t-1.5 -79v-225h-99v548h-83v74h83v76h99v-76h151v-74h-151v-99q51 45 133 45q125 0 164 -69q12 -22 17 -50.5t5 -76.5v-32v-161q0 -110 -13 -162
q-18 -69 -67 -100q-54 -33 -162 -33v90z" />
    <glyph glyph-name="afii10100" unicode="&#x453;" horiz-adv-x="438" 
d="M435 400h-270v-400h-99v486h369v-86zM386 667l-136 -126h-111l136 126h111z" />
    <glyph glyph-name="afii10101" unicode="&#x454;" horiz-adv-x="525" 
d="M477 144q0 -152 -204 -152q-144 0 -191 83q-20 35 -26 89q-4 33 -4 81q0 82 13 127q17 59 62 89q51 33 146 33q204 0 204 -151h-94q0 42 -41 56q-22 7 -67 7q-73 0 -100 -31q-21 -25 -22 -83h164v-83h-165q1 -76 28 -102t95 -26q53 0 76 11q32 14 32 52h94z" />
    <glyph glyph-name="afii10102" unicode="&#x455;" horiz-adv-x="516" 
d="M470 343h-92q0 40 -26 55q-23 14 -75 14q-75 1 -101 -16q-20 -13 -20 -43q0 -45 28 -56q11 -4 63 -7l86 -5q72 -7 102 -38q32 -34 32 -106q0 -88 -69 -123q-52 -27 -151 -26q-108 1 -154 37t-46 115h92q0 -40 25 -55t84 -15q74 0 98 15q23 14 23 53q0 42 -28 52
q-15 6 -72 9q-80 3 -103 7q-52 9 -78 37q-31 34 -31 102q0 88 69 121q50 24 150 24q101 0 148 -38q46 -36 46 -113z" />
    <glyph glyph-name="afii10103" unicode="&#x456;" horiz-adv-x="232" 
d="M115 674q26 0 41 -14q15 -15 15 -41t-15 -41t-41 -15t-41 15t-15 41t15 40.5t41 14.5zM165 0h-99v486h99v-486z" />
    <glyph glyph-name="afii10104" unicode="&#x457;" horiz-adv-x="232" 
d="M167 0h-99v486h99v-486zM224 667q54 0 54 -53q0 -54 -54 -54q-53 0 -53 54q0 28 12.5 40.5t40.5 12.5zM8 667q55 0 55 -53q0 -54 -55 -54q-53 0 -53 54q0 28 12.5 40.5t40.5 12.5z" />
    <glyph glyph-name="afii10105" unicode="&#x458;" horiz-adv-x="232" 
d="M-52 -190v83h39q49 0 64.5 19t15.5 79v495h99v-522q0 -102 -66 -135q-38 -19 -111 -19h-41zM116 674q26 0 41 -14q15 -15 15 -41t-15 -41t-41 -15t-41 15t-15 41t15 40.5t41 14.5z" />
    <glyph glyph-name="afii10106" unicode="&#x459;" horiz-adv-x="840" 
d="M474 290h146q56 0 86 -8t49 -28q33 -33 33 -108q0 -77 -34 -110q-16 -16 -36 -23.5t-55 -10.5q-21 -2 -34 -2h-254v400h-127l-62 -265q-11 -45 -23 -69t-30 -40q-40 -34 -127 -34v91q38 0 56.5 16.5t29.5 60.5l77 326h305v-196zM474 81h120q65 0 82 14q15 12 15 50
q0 25 -4.5 37t-16.5 18q-19 9 -84 9h-112v-128z" />
    <glyph glyph-name="afii10107" unicode="&#x45a;" horiz-adv-x="846" 
d="M390 0v207h-220v-207h-99v486h99v-192h220v192h99v-2h1v-194h147q56 0 86 -8t49 -28q33 -33 33 -108q0 -77 -34 -110q-16 -16 -36 -23.5t-55 -10.5q-22 -2 -35 -2h-255zM490 81h121q65 0 82 14q15 12 15 50q0 25 -4.5 37t-16.5 18q-19 9 -85 9h-112v-128z" />
    <glyph glyph-name="afii10108" unicode="&#x45b;" horiz-adv-x="581" 
d="M20 548v74h83v75h99v-75h151v-74h-151v-99q51 45 133 45q125 0 164 -69q12 -22 17 -50.5t5 -76.5v-32v-266h-99v256v42q0 36 -4 54t-14 30q-20 23 -80 23q-90 0 -112 -62q-7 -19 -8.5 -39t-1.5 -79v-225h-99v548h-83z" />
    <glyph glyph-name="afii10109" unicode="&#x45c;" horiz-adv-x="516" 
d="M513 0h-132l-215 225v-225h-100v486h100v-197l216 197h129l-252 -227zM433 667l-136 -126h-111l136 126h111z" />
    <glyph glyph-name="uni045D" unicode="&#x45d;" horiz-adv-x="552" 
d="M485 0h-92v347l-223 -347h-103v486h93v-346l223 346h102v-486zM388 541h-110l-135 126h110z" />
    <glyph glyph-name="afii10110" unicode="&#x45e;" horiz-adv-x="495" 
d="M481 486l-259 -676h-103l79 199l-183 477h105l130 -365l126 365h105zM392 669q0 -78 -36 -105q-32 -24 -109 -24q-87 0 -118 32q-27 28 -27 97h67q0 -39 16 -53t62 -14q45 0 61 13q18 15 18 54h66z" />
    <glyph glyph-name="afii10193" unicode="&#x45f;" horiz-adv-x="552" 
d="M484 0h-161v-117h-93v117h-164v486h99v-400h220v400h99v-486z" />
    <glyph glyph-name="uni0462" unicode="&#x462;" horiz-adv-x="712" 
d="M277 387h146q86 0 128 -9q61 -14 90 -52q33 -45 33 -131q0 -90 -36 -135q-31 -39 -96 -52q-42 -8 -136 -8h-232v484h-178v93h178v90h103v-90h206v-93h-206v-97zM528 104q43 21 43 91q0 68 -43 89q-24 11 -90 11h-34h-127v-202h127h38q61 0 86 11z" />
    <glyph glyph-name="uni0463" unicode="&#x463;" horiz-adv-x="558" 
d="M187 483h213v-79h-213v-114h146q56 0 86 -8t50 -28q33 -33 33 -108q0 -77 -34 -110q-16 -16 -36 -23.5t-55 -10.5q-22 -2 -35 -2h-248v403h-99v81h100v183h92v-184zM187 81h121q64 0 82 14q15 12 15 50q0 25 -4.5 37t-16.5 18q-19 9 -85 9h-112v-128z" />
    <glyph glyph-name="uni0472" unicode="&#x472;" horiz-adv-x="675" 
d="M336 674q128 0 190 -44q54 -38 71 -119q10 -51 10 -176q0 -126 -12 -182q-18 -81 -72 -119q-62 -42 -186 -42q-127 0 -189 45q-54 39 -71 121q-10 51 -10 176t10 176q16 82 70 120q62 44 189 44zM502 387q-1 79 -13 116q-14 42 -49 60q-34 17 -104 17t-104 -17
q-33 -17 -46.5 -55t-14.5 -121h331zM503 303h-333q1 -86 12 -127q12 -48 47 -68q35 -21 108 -21q71 0 107 21q34 20 47 69q11 40 12 126z" />
    <glyph glyph-name="uni0473" unicode="&#x473;" horiz-adv-x="558" 
d="M280 494q121 0 176 -54q31 -31 43 -84q8 -41 8 -113q0 -82 -11 -125q-12 -45 -40 -71q-55 -55 -176 -55q-66 0 -109 14q-41 13 -68 41q-31 30 -43 83q-8 41 -8 113q0 82 11 126q12 44 40 71q28 28 70.5 41t106.5 13zM152 208q1 -74 28 -100q28 -27 100 -27q79 0 106 35
q19 26 21 92h-255zM406 293q-3 66 -31 90q-28 23 -95 23q-77 0 -104 -31q-21 -25 -23 -82h253z" />
    <glyph glyph-name="uni0474" unicode="&#x474;" horiz-adv-x="626" 
d="M353 0h-101l-249 667h110l191 -533l135 373q21 60 35 87t32 44q38 36 116 37v-92q-32 -1 -49.5 -21t-40.5 -81z" />
    <glyph glyph-name="uni0475" unicode="&#x475;" horiz-adv-x="510" 
d="M304 0h-99l-191 486h106l137 -370l88 235q21 56 32.5 79.5t26.5 36.5q29 27 94 28v-88q-25 -1 -36.5 -15t-31.5 -65z" />
    <glyph glyph-name="afii10050" unicode="&#x490;" horiz-adv-x="528" 
d="M519 574h-335v-574h-104v667h342v104h97v-197z" />
    <glyph glyph-name="afii10098" unicode="&#x491;" horiz-adv-x="438" 
d="M434 400h-269v-400h-99v486h275v107h93v-193z" />
    <glyph glyph-name="uni0492" unicode="&#x492;" horiz-adv-x="574" 
d="M183 296v-296h-103v296h-79v92h79v279h439v-92h-336v-187h226v-92h-226z" />
    <glyph glyph-name="uni0493" unicode="&#x493;" horiz-adv-x="438" 
d="M67 294v192h368v-86h-269v-106h183v-87h-183v-207h-99v207h-67v87h67z" />
    <glyph glyph-name="uni049A" unicode="&#x49a;" horiz-adv-x="664" 
d="M539 74h76v-191h-96v117h-51l-284 277v-277h-104v667h103v-279l294 279h140l-357 -331z" />
    <glyph glyph-name="uni049B" unicode="&#x49b;" horiz-adv-x="558" 
d="M428 87h98v-204h-93v117h-52l-215 225v-225h-100v486h100v-197l216 197h128l-251 -227z" />
    <glyph glyph-name="uni04A2" unicode="&#x4a2;" horiz-adv-x="723" 
d="M579 74h94v-191h-96v117h-101v295h-292v-295h-104v667h104v-279h292v279h103v-593z" />
    <glyph glyph-name="uni04A3" unicode="&#x4a3;" horiz-adv-x="605" 
d="M484 87h91v-204h-93v117h-97v207h-220v-207h-99v486h99v-192h220v192h99v-399z" />
    <glyph glyph-name="uni04AE" unicode="&#x4ae;" horiz-adv-x="589" 
d="M588 667l-241 -377v-290h-104v290l-241 377h120l175 -284l173 284h118z" />
    <glyph glyph-name="uni04AF" unicode="&#x4af;" horiz-adv-x="519" 
d="M308 -191h-102v192l-190 485h113l129 -363l133 363h112l-195 -485v-192z" />
    <glyph glyph-name="uni04B0" unicode="&#x4b0;" horiz-adv-x="589" 
d="M243 236v54l-241 377h119l175 -284l174 284h117l-240 -377v-54h159v-86h-159v-150h-104v150h-157v86h157z" />
    <glyph glyph-name="uni04B1" unicode="&#x4b1;" horiz-adv-x="519" 
d="M308 -29h162v-82h-162v-80h-102v80h-159v82h159v29l-190 486h113l129 -363l134 363h112l-196 -486v-29z" />
    <glyph glyph-name="uni04B8" unicode="&#x4b8;" horiz-adv-x="617" 
d="M351 348q45 5 84 22v297h103v-667h-103v275q-40 -15 -84 -20v-154h-103v152q-82 10 -125 53q-32 32 -43 76t-11 137v148h104v-161q0 -65 9 -93.5t35 -48.5q16 -12 31 -14v157h103v-159z" />
    <glyph glyph-name="uni04BA" unicode="&#x4ba;" horiz-adv-x="617" 
d="M79 667h104v-275q65 24 144 24q113 0 167 -55q32 -32 43 -76t11 -137v-148h-103v161q0 63 -10 95q-12 37 -42 53q-31 16 -90 15q-25 0 -59.5 -8t-60.5 -19v-297h-104v667z" />
    <glyph glyph-name="uni04BB" unicode="&#x4bb;" horiz-adv-x="560" 
d="M81 0v697h99v-248q51 45 133 45q125 0 164 -69q12 -22 17 -50.5t5 -76.5v-32v-266h-99v256v42q0 36 -4 54t-14 30q-20 23 -80 23q-90 0 -112 -62q-7 -19 -8.5 -39t-1.5 -79v-225h-99z" />
    <glyph glyph-name="uni04C0" unicode="&#x4c0;" horiz-adv-x="263" 
d="M184 0h-104v667h104v-667z" />
    <glyph glyph-name="uni04CF" unicode="&#x4cf;" horiz-adv-x="263" 
d="M184 0h-104v667h104v-667z" />
    <glyph glyph-name="uni04D8" unicode="&#x4d8;" horiz-adv-x="675" 
d="M75 502q16 91 77 131q62 41 184 41q128 0 190 -44q54 -38 71 -119q10 -51 10 -176q0 -126 -12 -182q-18 -81 -72 -119q-62 -42 -186 -42q-127 0 -189 45q-54 39 -71 121q-10 51 -10 176v53h435q-1 79 -13 116q-14 42 -49 60q-34 17 -104 17q-80 0 -114 -23
q-31 -21 -42 -68zM503 303h-333q1 -86 12 -127q12 -48 47 -68q35 -21 108 -21q71 0 107 21q34 20 47 69q11 40 12 126z" />
    <glyph glyph-name="afii10846" unicode="&#x4d9;" horiz-adv-x="541" 
d="M52 279h338q0 50 -9 75q-10 30 -37 43q-27 14 -80 14q-52 0 -78 -13q-35 -16 -35 -55h-93q0 90 78 127q50 24 131 24q142 0 190 -77q33 -53 33 -169q0 -84 -14 -133q-18 -60 -64 -90q-50 -33 -142 -33q-99 0 -149 37q-44 33 -59 101q-10 48 -10 149zM150 197
q0 -40 5 -61.5t18 -34.5q26 -26 97 -26q66 0 92.5 27t26.5 95h-239z" />
    <glyph glyph-name="uni04E8" unicode="&#x4e8;" horiz-adv-x="675" 
d="M336 674q128 0 190 -44q54 -38 71 -119q10 -51 10 -176q0 -126 -12 -182q-18 -81 -72 -119q-62 -42 -186 -42q-127 0 -189 45q-54 39 -71 121q-10 51 -10 176t10 176q16 82 70 120q62 44 189 44zM502 387q-1 79 -13 116q-14 42 -49 60q-34 17 -104 17t-104 -17
q-33 -17 -46.5 -55t-14.5 -121h331zM503 303h-333q1 -86 12 -127q12 -48 47 -68q35 -21 108 -21q71 0 107 21q34 20 47 69q11 40 12 126z" />
    <glyph glyph-name="uni04E9" unicode="&#x4e9;" horiz-adv-x="558" 
d="M280 494q121 0 176 -55q31 -30 43 -83q8 -41 8 -113q0 -82 -11 -126q-12 -44 -40 -70q-55 -55 -176 -55q-66 0 -109 14q-41 13 -68 41q-31 30 -43 83q-8 41 -8 113q0 82 11 125q12 45 40 71q28 29 70.5 42t106.5 13zM406 193h-253q4 -65 31 -89q28 -23 96 -23
q75 0 102 31q20 23 24 81zM152 285h254q-3 71 -30 95q-27 25 -96 25q-78 0 -105 -33q-20 -25 -23 -87z" />
    <glyph glyph-name="Wgrave" unicode="&#x1e80;" horiz-adv-x="891" 
d="M855 667l-159 -667h-109l-142 541l-142 -541h-111l-156 667h103l116 -520l137 520h109l137 -520l118 520h99zM547 736h-110l-135 126h110z" />
    <glyph glyph-name="wgrave" unicode="&#x1e81;" horiz-adv-x="723" 
d="M704 486l-135 -486h-101l-104 379l-105 -379h-104l-136 486h100l93 -370l101 370h99l102 -370l93 370h97zM471 541h-110l-135 126h110z" />
    <glyph glyph-name="Wacute" unicode="&#x1e82;" horiz-adv-x="891" 
d="M855 667l-159 -667h-109l-142 541l-142 -541h-111l-156 667h103l116 -520l137 520h109l137 -520l118 520h99zM612 862l-136 -126h-111l136 126h111z" />
    <glyph glyph-name="wacute" unicode="&#x1e83;" horiz-adv-x="723" 
d="M704 486l-135 -486h-101l-104 379l-105 -379h-104l-136 486h100l93 -370l101 370h99l102 -370l93 370h97zM512 667l-136 -126h-111l136 126h111z" />
    <glyph glyph-name="Wdieresis" unicode="&#x1e84;" horiz-adv-x="891" 
d="M855 667l-159 -667h-109l-142 541l-142 -541h-111l-156 667h103l116 -520l137 520h109l137 -520l118 520h99zM553 863q54 0 54 -53q0 -54 -54 -54q-53 0 -53 54q0 28 12.5 40.5t40.5 12.5zM337 863q55 0 55 -53q0 -54 -55 -54q-53 0 -53 54q0 28 12.5 40.5t40.5 12.5z
" />
    <glyph glyph-name="wdieresis" unicode="&#x1e85;" horiz-adv-x="723" 
d="M704 486l-135 -486h-101l-104 379l-105 -379h-104l-136 486h100l93 -370l101 370h99l102 -370l93 370h97zM472 667q54 0 54 -53q0 -54 -54 -54q-53 0 -53 54q0 28 12.5 40.5t40.5 12.5zM256 667q55 0 55 -53q0 -54 -55 -54q-53 0 -53 54q0 28 12.5 40.5t40.5 12.5z" />
    <glyph glyph-name="Ygrave" unicode="&#x1ef2;" horiz-adv-x="589" 
d="M588 667l-241 -377v-290h-104v290l-241 377h120l175 -284l173 284h118zM410 736h-110l-135 126h110z" />
    <glyph glyph-name="ygrave" unicode="&#x1ef3;" horiz-adv-x="531" 
d="M156 -45q2 -64 101 -64q82 0 104 47q7 16 10 36t5 67q-46 -49 -139 -49q-134 0 -169 83q-10 25 -13 51.5t-3 94.5v265h100v-256v-41q0 -36 4 -54.5t14 -29.5q20 -23 79 -23q90 0 112 62q7 19 8.5 38t1.5 79v225h99v-446q0 -39 -2 -53q-8 -93 -59 -137q-52 -44 -149 -44
q-93 0 -146 35q-56 38 -56 114h98zM398 541h-110l-135 126h110z" />
    <glyph glyph-name="uni2011" unicode="&#x2011;" horiz-adv-x="522" 
d="M453 199h-384v89h384v-89z" />
    <glyph glyph-name="figuredash" unicode="&#x2012;" horiz-adv-x="592" 
d="M556 199h-521v89h521v-89z" />
    <glyph glyph-name="afii00208" unicode="&#x2015;" horiz-adv-x="1005" 
d="M906 199h-808v89h808v-89z" />
    <glyph glyph-name="zerosuperior" unicode="&#x2070;" 
d="M208 674q95 0 126 -57q16 -31 16 -91v-72v-22q0 -50 -5.5 -78.5t-19.5 -47.5q-32 -46 -117 -46q-96 0 -125 61q-16 35 -16 116v59q0 53 5.5 81.5t18.5 48.5q31 48 117 48zM279 467q0 93 -7 114q-7 16 -21.5 23.5t-42.5 7.5t-42.5 -8t-20.5 -25q-7 -22 -7 -112
q0 -91 7 -113q7 -17 21 -24.5t42 -7.5q29 0 43.5 8t20.5 26q7 21 7 111z" />
    <glyph glyph-name="foursuperior" unicode="&#x2074;" 
d="M351 362h-57v-95h-68v95h-180v50l183 255h65v-246h57v-59zM226 421v143l-101 -143h101z" />
    <glyph glyph-name="fivesuperior" unicode="&#x2075;" 
d="M76 361h69q0 -21 15.5 -30t52.5 -9q43 0 59 21q13 17 13 53q0 44 -16 60t-54 16q-57 0 -63 -40h-68v235h249v-59h-181v-96q21 21 71 21q78 0 107 -37q24 -31 24 -98q0 -79 -42 -112q-34 -26 -99 -26q-69 0 -102 23q-35 25 -35 78z" />
    <glyph glyph-name="sixsuperior" unicode="&#x2076;" horiz-adv-x="412" 
d="M267 570q-2 25 -14 34.5t-44 9.5q-26 0 -39.5 -5t-20.5 -17q-12 -20 -12 -81q31 23 77 24q72 1 103 -37q27 -33 26 -101q0 -75 -37 -107q-33 -29 -98 -29q-82 0 -113 48q-26 43 -27 143q0 99 7 134q11 49 47 71q32 19 87 19q69 0 98 -28q26 -25 28 -78h-68zM274 396
q0 44 -13.5 60.5t-49.5 16.5q-40 0 -57 -20q-16 -18 -16 -53q0 -43 19 -61q17 -16 51 -16q39 0 54 18q12 17 12 55z" />
    <glyph glyph-name="sevensuperior" unicode="&#x2077;" 
d="M349 618l-171 -351h-76l170 339h-195v61h272v-49z" />
    <glyph glyph-name="eightsuperior" unicode="&#x2078;" 
d="M305 475q23 -9 33 -31.5t10 -63.5q0 -73 -43 -100q-32 -20 -96 -20q-74 0 -107 28t-33 92q0 39 10 61q10 24 34 34q-22 8 -31 28.5t-9 61.5q0 65 38 89q31 20 98 20q76 0 107 -27q29 -25 29 -82q0 -39 -9 -59q-9 -22 -31 -31zM209 614q-41 0 -55 -16q-12 -13 -12 -39
q0 -31 14.5 -43t52.5 -12q41 0 55 15q11 12 11 40q0 30 -15 42.5t-51 12.5zM209 447q-38 0 -54 -15t-16 -50q0 -36 19 -50q16 -12 51 -12q38 0 54 14.5t16 47.5q0 39 -19 53q-16 12 -51 12z" />
    <glyph glyph-name="ninesuperior" unicode="&#x2079;" horiz-adv-x="412" 
d="M145 368q2 -26 14.5 -35.5t44.5 -9.5q25 0 38.5 5t20.5 17q12 20 13 81q-31 -22 -77 -23q-72 -1 -103 36q-27 33 -26 101q0 75 37 107q33 29 98 29q82 0 112 -48q26 -43 27 -143q0 -98 -7 -134q-11 -49 -47 -71q-32 -19 -87 -19q-69 0 -98 28q-25 25 -28 79h68zM139 541
q0 -43 13.5 -59.5t49.5 -16.5q39 0 56 20q15 18 16 53q0 42 -19 60q-16 16 -50 16q-39 0 -54 -18q-12 -17 -12 -55z" />
    <glyph glyph-name="parenleftsuperior" unicode="&#x207d;" horiz-adv-x="232" 
d="M228 169q-79 0 -117 35q-33 32 -44 101q-7 47 -7 160t7 159q11 70 44 101q38 36 117 36v-65q-48 0 -68 -23q-20 -21 -26 -74q-3 -34 -3 -134q0 -93 2.5 -128t11.5 -57q11 -27 35 -38q19 -8 48 -8v-65z" />
    <glyph glyph-name="parenrightsuperior" unicode="&#x207e;" horiz-adv-x="232" 
d="M5 761q78 0 116 -36q34 -31 45 -101q7 -47 7 -159q0 -113 -7 -160q-11 -69 -45 -101q-38 -35 -116 -35v65q48 0 69 23q19 21 25 74q3 33 3 134q0 93 -2.5 128t-12.5 57q-11 27 -34 38q-19 8 -48 8v65z" />
    <glyph glyph-name="zeroinferior" unicode="&#x2080;" 
d="M208 407q95 0 126 -57q16 -31 16 -91v-72v-22q0 -50 -5.5 -78.5t-19.5 -47.5q-32 -46 -117 -46q-96 0 -125 61q-16 35 -16 117v59q0 52 5.5 80.5t18.5 48.5q31 48 117 48zM279 200q0 93 -7 114q-7 16 -21.5 23.5t-42.5 7.5t-42.5 -8t-20.5 -25q-7 -22 -7 -112
q0 -91 7 -113q7 -17 21 -24.5t42 -7.5q29 0 43.5 8t20.5 26q7 21 7 111z" />
    <glyph glyph-name="oneinferior" unicode="&#x2081;" 
d="M249 0h-70v303l-61 -53l-43 47l118 103h56v-400z" />
    <glyph glyph-name="twoinferior" unicode="&#x2082;" 
d="M70 301q0 63 46 88q32 18 93 18q75 0 108 -30q33 -29 33 -90q0 -42 -14 -64t-53 -40q-19 -10 -64 -25q-57 -19 -68 -31q-10 -12 -10 -37v-28h208v-62h-278v100q0 66 56 95q20 10 55 20l44 12q33 10 43.5 21.5t10.5 38.5q0 36 -16 48q-15 11 -54 11q-41 0 -56 -9.5
t-15 -35.5h-69z" />
    <glyph glyph-name="threeinferior" unicode="&#x2083;" 
d="M314 210q19 -13 26.5 -34.5t7.5 -59.5q-1 -67 -40 -96q-34 -25 -103 -25q-78 0 -109 29q-27 25 -30 83h67q2 -32 18 -41q14 -9 54 -9q50 -1 64 12q12 12 12 47q0 43 -16 54q-14 10 -58 10h-61v61h61q43 0 56 9.5t14 39.5q0 35 -16 45q-15 10 -54 10q-42 0 -56 -9.5
t-16 -40.5h-66q3 66 38 90q31 22 100 22q76 0 108 -31q28 -27 29 -83q0 -33 -6.5 -51.5t-23.5 -31.5z" />
    <glyph glyph-name="fourinferior" unicode="&#x2084;" 
d="M351 95h-57v-95h-68v95h-180v50l183 255h65v-246h57v-59zM226 154v143l-101 -143h101z" />
    <glyph glyph-name="fiveinferior" unicode="&#x2085;" 
d="M76 94h69q0 -21 15.5 -30t52.5 -9q43 0 59 21q13 17 13 53q0 44 -16 60t-54 16q-57 0 -63 -40h-68v235h249v-59h-181v-96q21 21 71 21q78 0 107 -37q24 -31 24 -98q0 -79 -42 -112q-34 -26 -99 -26q-69 0 -102 23q-35 25 -35 78z" />
    <glyph glyph-name="sixinferior" unicode="&#x2086;" horiz-adv-x="412" 
d="M267 299q-2 26 -14 35.5t-44 9.5q-26 0 -39.5 -5t-20.5 -18q-12 -19 -12 -80q31 22 77 23q72 1 103 -36q27 -33 26 -101q0 -75 -37 -107q-33 -29 -98 -29q-82 0 -113 48q-26 43 -27 143q0 98 7 134q11 49 47 71q32 19 87 19q69 0 98 -28q26 -25 28 -79h-68zM274 126
q0 43 -13.5 59.5t-49.5 16.5q-40 0 -57 -20q-16 -18 -16 -53q0 -42 19 -60q17 -16 51 -16q39 0 54 18q12 17 12 55z" />
    <glyph glyph-name="seveninferior" unicode="&#x2087;" 
d="M349 351l-171 -351h-76l170 339h-195v61h272v-49z" />
    <glyph glyph-name="eightinferior" unicode="&#x2088;" 
d="M305 208q23 -9 33 -31.5t10 -63.5q0 -73 -43 -100q-32 -20 -96 -20q-74 0 -107 28t-33 92q0 39 10 61q10 24 34 34q-22 8 -31 28.5t-9 61.5q0 65 38 89q31 20 98 20q76 0 107 -27q29 -25 29 -82q0 -39 -9 -59q-9 -22 -31 -31zM209 347q-41 0 -55 -16q-12 -13 -12 -39
q0 -31 14.5 -43t52.5 -12q41 0 55 15q11 12 11 40q0 30 -15 42.5t-51 12.5zM209 179q-38 0 -54 -14.5t-16 -49.5q0 -36 19 -50q16 -12 51 -12q38 0 54 14.5t16 47.5q0 38 -19 52q-16 12 -51 12z" />
    <glyph glyph-name="nineinferior" unicode="&#x2089;" horiz-adv-x="412" 
d="M145 97q2 -26 14.5 -35.5t44.5 -9.5q25 0 38.5 5t20.5 18q12 19 13 80q-31 -22 -77 -23q-72 -1 -103 37q-27 33 -26 101q0 75 37 107q33 29 98 29q82 0 112 -48q26 -43 27 -143q0 -99 -7 -135q-11 -49 -47 -71q-32 -19 -87 -19q-69 0 -98 28q-25 25 -28 79h68zM139 271
q0 -44 13.5 -60.5t49.5 -16.5q39 0 56 20q15 18 16 53q0 43 -19 61q-16 16 -50 16q-39 0 -54 -18q-12 -17 -12 -55z" />
    <glyph glyph-name="parenleftinferior" unicode="&#x208d;" horiz-adv-x="232" 
d="M228 -98q-79 0 -117 35q-33 32 -44 101q-7 47 -7 160t7 159q11 70 44 101q38 36 117 36v-65q-48 0 -68 -23q-20 -21 -26 -74q-3 -34 -3 -134q0 -93 2.5 -128t11.5 -57q11 -27 35 -38q19 -8 48 -8v-65z" />
    <glyph glyph-name="parenrightinferior" unicode="&#x208e;" horiz-adv-x="232" 
d="M5 494q78 0 116 -36q34 -31 45 -101q7 -47 7 -159q0 -113 -7 -160q-11 -69 -45 -101q-38 -35 -116 -35v65q48 0 69 23q19 21 25 74q3 33 3 134q0 93 -2.5 128t-12.5 57q-11 27 -34 38q-19 8 -48 8v65z" />
    <glyph glyph-name="franc" unicode="&#x20a3;" horiz-adv-x="972" 
d="M519 575h-336v-187h327v-92h-327v-296h-103v667h439v-92zM961 245h-95q0 39 -21 52q-17 11 -57 11q-49 0 -73 -22q-20 -18 -27.5 -54.5t-7.5 -118.5v-113h-99v388h89v-46q48 54 136 54q83 0 121 -41q34 -38 34 -110z" />
    <glyph glyph-name="lira" unicode="&#x20a4;" horiz-adv-x="585" 
d="M548 0h-498v90h64v121h-64v81h64v57h-64v82h64v27q0 69 5 93q9 43 40 71q54 52 169 52q99 0 145 -27q66 -39 66 -136h-95q0 41 -23 57t-83 16q-57 0 -83 -12q-24 -10 -32.5 -33t-8.5 -79v-29h230v-82h-230v-57h230v-81h-230v-121h334v-90z" />
    <glyph glyph-name="peseta" unicode="&#x20a7;" horiz-adv-x="1614" 
d="M80 667h231q94 0 136 -8q65 -13 96 -52q36 -45 36 -134q0 -90 -36 -136q-31 -40 -95 -53q-44 -9 -137 -9h-127v-275h-104v667zM433 379q43 21 43 92q0 72 -43 93q-25 11 -86 11h-38h-125v-207h125h35q65 0 89 11zM1066 144q0 -86 -58 -123q-44 -29 -118 -29
q-173 0 -173 155v256h-79v83h79v181h99v-181h207v-83h-207v-256q0 -39 18 -55.5t61 -16.5q44 0 63 19q17 17 17 50h91zM1555 343h-91q0 40 -26 55q-22 13 -74 14h-15q-57 0 -81.5 -13.5t-25.5 -44.5q-1 -46 28 -57q12 -5 63 -7l87 -5q71 -7 101 -39q33 -34 32 -106
q-1 -88 -69 -123q-52 -26 -151 -25q-108 1 -154 37q-46 37 -46 115h91q0 -39 23.5 -54t84.5 -16h11q67 0 90 17q21 14 21 50q1 42 -28 53q-16 6 -71 9q-80 3 -103 7q-53 10 -79 38q-31 33 -30 102q1 87 69 121q51 24 151 23q102 -1 147 -38q45 -36 45 -113z" />
    <glyph glyph-name="afii61289" unicode="&#x2113;" horiz-adv-x="500" 
d="M252 271q-22 -120 -27 -151.5t-5 -54.5q0 -22 15 -22q24 0 47 52l2 4q8 16 21 16q16 0 16 -18q0 -26 -27 -62q-35 -49 -79 -49q-35 0 -53 27q-16 24 -17 64q0 31 9 119q-35 -33 -45 -33q-6 0 -11.5 6t-5.5 13q0 11 21 30q20 18 49 51q49 241 99 337q43 85 102 85
q32 0 50 -26q16 -23 16 -58q0 -41 -18 -94.5t-47 -99.5q-34 -55 -112 -136zM266 348q117 137 116 248q0 19 -5.5 30t-14.5 11q-10 0 -20.5 -11.5t-17.5 -30.5q-27 -75 -58 -247z" />
    <glyph glyph-name="afii61352" unicode="&#x2116;" horiz-adv-x="1048" 
d="M833 494q88 0 129 -39q21 -20 29 -50.5t8 -86.5q0 -57 -8 -87.5t-29 -50.5q-41 -39 -129 -39q-90 0 -130 39q-20 20 -28 50t-8 88q0 57 8 87t28 50q40 39 130 39zM833 411q-52 0 -67.5 -17.5t-15.5 -75.5q0 -33 3 -48.5t11 -25.5q17 -19 69 -19t67.5 17.5t15.5 75.5
q0 34 -3.5 50.5t-12.5 25.5q-19 17 -67 17zM989 0h-312v80h312v-80zM578 0h-108l-292 500v-500h-98v667h107l293 -496v496h98v-667z" />
    <glyph glyph-name="estimated" unicode="&#x212e;" horiz-adv-x="798" 
d="M769 311h-599q-6 0 -6 -4v-181q0 -10 9 -21q47 -49 109 -75q56 -23 118 -23q74 0 141 34q56 28 97 76h54q-55 -64 -137 -99q-74 -31 -156 -31q-100 0 -187 45q-83 45 -132 120q-51 78 -51 168t51 167q49 76 132 120q87 45 187 45t187 -45q83 -44 132 -120q51 -77 51 -167
v-9zM629 330q5 0 5 5v181q0 12 -10 22q-47 47 -108 72q-56 22 -116 22q-70 0 -133 -30q-52 -25 -93 -67q-10 -10 -10 -23v-177q0 -5 6 -5h459z" />
    <glyph glyph-name="onethird" unicode="&#x2153;" horiz-adv-x="908" 
d="M661 667l-337 -667h-77l336 667h78zM249 267h-70v303l-61 -53l-43 47l118 103h56v-400zM795 210q19 -13 26.5 -34.5t7.5 -59.5q-1 -67 -40 -96q-34 -25 -103 -25q-79 0 -109 29q-27 25 -30 83h67q2 -32 18 -41q14 -9 54 -9q50 -1 63 12q12 12 13 47q0 43 -16 54
q-14 10 -58 10h-61v61h61q43 0 56 9.5t14 39.5q0 35 -16 45q-15 10 -54 10q-43 0 -57 -9.5t-15 -40.5h-66q3 66 38 90q31 22 100 22q76 0 108 -31q28 -27 29 -83q0 -33 -6.5 -51.5t-23.5 -31.5z" />
    <glyph glyph-name="twothirds" unicode="&#x2154;" horiz-adv-x="908" 
d="M662 667l-338 -667h-76l336 667h78zM795 210q19 -13 26.5 -34.5t7.5 -59.5q0 -67 -39 -96q-34 -25 -104 -25q-78 0 -109 29q-27 25 -30 83h68q2 -32 18 -41q14 -9 54 -9q49 -1 63 12q12 12 12 47q0 43 -16 54q-14 10 -58 10h-61v61h61q44 0 57 9.5t13 39.5q0 35 -16 45
q-14 10 -54 10q-42 0 -56 -9.5t-15 -40.5h-67q3 66 39 90q31 22 99 22q76 0 108 -31q28 -27 29 -83q0 -33 -6.5 -51.5t-23.5 -31.5zM70 568q0 63 46 88q32 18 93 18q75 0 108 -30q33 -29 33 -90q0 -42 -14 -64t-53 -40q-19 -10 -64 -25q-57 -19 -68 -31q-10 -12 -10 -37v-28
h208v-62h-278v100q0 66 56 95q20 10 55 20l44 12q33 10 43.5 21.5t10.5 38.5q0 36 -16 48q-15 11 -54 11q-41 0 -56 -9.5t-15 -35.5h-69z" />
    <glyph glyph-name="oneeighth" unicode="&#x215b;" horiz-adv-x="908" 
d="M604 208q-21 8 -30 28.5t-9 61.5q0 65 37 89q31 20 98 20q76 0 106 -27q30 -25 30 -82q0 -39 -9 -59q-9 -22 -31 -31q22 -9 32.5 -31.5t10.5 -63.5q0 -73 -43 -100q-32 -20 -96 -20q-74 0 -106 28q-33 28 -33 92q0 39 9 61q11 24 34 34zM700 347q-40 0 -55 -16
q-11 -13 -11 -39q0 -31 14.5 -43t51.5 -12q41 0 56 15q11 12 11 40q0 30 -15.5 42.5t-51.5 12.5zM700 179q-38 0 -54 -14.5t-16 -49.5q0 -36 19 -50q16 -12 51 -12q40 0 56 16q15 14 15 46q0 38 -20 52q-15 12 -51 12zM661 667l-337 -667h-77l336 667h78zM249 267h-70v303
l-61 -53l-43 47l118 103h56v-400z" />
    <glyph glyph-name="threeeighths" unicode="&#x215c;" horiz-adv-x="908" 
d="M605 208q-22 8 -31 28.5t-9 61.5q0 65 37 89q31 20 98 20q76 0 107 -27q29 -25 29 -82q0 -39 -9 -59q-9 -22 -31 -31q23 -9 33 -31.5t10 -63.5q0 -73 -43 -100q-32 -20 -96 -20q-74 0 -106 28q-33 28 -33 92q0 39 10 61q10 24 34 34zM700 347q-40 0 -55 -16
q-11 -13 -11 -39q0 -31 14.5 -43t51.5 -12q42 0 56 15q11 12 11 40q0 30 -15 42.5t-52 12.5zM700 179q-38 0 -54 -14.5t-16 -49.5q0 -36 19 -50q16 -12 51 -12q40 0 56 16q15 14 15 46q0 38 -19 52q-16 12 -52 12zM662 667l-338 -667h-76l336 667h78zM314 475
q19 -13 26.5 -34t7.5 -59q-1 -67 -40 -96q-34 -25 -103 -25q-78 0 -109 29q-27 25 -30 83h67q2 -32 18 -41q14 -9 54 -9q50 -1 64 12q12 12 12 46q0 43 -16 54q-14 10 -58 10h-61v61h61q43 0 56 9.5t14 40.5q0 35 -16 45q-15 10 -54 10q-42 0 -56 -9.5t-16 -40.5h-66
q3 66 38 90q31 22 100 22q76 0 108 -31q28 -27 29 -83q0 -34 -6.5 -52.5t-23.5 -31.5z" />
    <glyph glyph-name="fiveeighths" unicode="&#x215d;" horiz-adv-x="908" 
d="M605 208q-22 8 -31 28.5t-9 61.5q0 65 37 89q31 20 98 20q77 0 107 -27q30 -25 30 -82q0 -39 -9 -59q-9 -22 -32 -31q23 -9 33.5 -31.5t10.5 -63.5q0 -73 -43 -100q-32 -20 -97 -20q-74 0 -106 28q-33 28 -33 92q0 39 9 61q11 24 35 34zM700 347q-40 0 -55 -16
q-11 -13 -11 -39q0 -31 14.5 -43t51.5 -12q41 0 56 15q11 12 11 40q0 30 -15.5 42.5t-51.5 12.5zM700 179q-37 0 -53 -14.5t-16 -49.5q0 -36 18 -50q17 -12 51 -12q38 0 54.5 14.5t16.5 47.5q0 38 -19 52q-16 12 -52 12zM76 361h69q0 -21 15.5 -30t52.5 -9q43 0 59 21
q13 17 13 53q0 44 -16 60t-54 16q-57 0 -63 -40h-68v235h249v-59h-181v-96q21 21 71 21q78 0 107 -37q24 -31 24 -98q0 -79 -42 -112q-34 -26 -99 -26q-69 0 -102 23q-35 25 -35 78zM662 667l-338 -667h-76l336 667h78z" />
    <glyph glyph-name="seveneighths" unicode="&#x215e;" horiz-adv-x="908" 
d="M604 208q-22 8 -31 28.5t-9 61.5q0 65 38 89q31 20 98 20q76 0 107 -27q29 -25 29 -82q0 -39 -9 -59q-9 -22 -31 -31q23 -9 33 -31.5t10 -63.5q0 -73 -43 -100q-32 -20 -96 -20q-74 0 -107 28t-33 92q0 39 10 61q10 24 34 34zM700 347q-41 0 -55 -16q-12 -13 -12 -39
q0 -31 14.5 -43t52.5 -12q41 0 55 15q11 12 11 40q0 30 -15 42.5t-51 12.5zM700 179q-38 0 -54 -14.5t-16 -49.5q0 -36 19 -50q16 -12 51 -12q38 0 54 14.5t16 47.5q0 38 -19 52q-16 12 -51 12zM349 618l-171 -351h-76l170 339h-195v61h272v-49zM661 667l-337 -667h-77
l336 667h78z" />
    <glyph glyph-name="arrowleft" unicode="&#x2190;" horiz-adv-x="720" 
d="M372 667l68 -68l-227 -221h482v-96h-482l227 -220l-68 -68l-338 336z" />
    <glyph glyph-name="arrowup" unicode="&#x2191;" horiz-adv-x="728" 
d="M701 323l-67 -68l-221 227v-482h-96v482l-221 -227l-68 68l337 338z" />
    <glyph glyph-name="arrowright" unicode="&#x2192;" horiz-adv-x="720" 
d="M357 667l338 -337l-338 -336l-68 68l227 220h-482v96h482l-227 221z" />
    <glyph glyph-name="arrowdown" unicode="&#x2193;" horiz-adv-x="727" 
d="M701 338l-336 -338l-337 337l68 68l221 -226v482h96v-482l220 227z" />
    <glyph glyph-name="uni2196" unicode="&#x2196;" horiz-adv-x="705" 
d="M603 235l-68 -68l-341 340l4 -316h-96v476h476v-95l-316 3z" />
    <glyph glyph-name="uni2197" unicode="&#x2197;" horiz-adv-x="705" 
d="M603 191h-95l3 316l-341 -340l-68 68l341 340l-316 -3v95h476v-476z" />
    <glyph glyph-name="uni2198" unicode="&#x2198;" horiz-adv-x="705" 
d="M604 0h-476v96l316 -4l-342 341l69 68l341 -341l-4 317h96v-477z" />
    <glyph glyph-name="uni2199" unicode="&#x2199;" horiz-adv-x="705" 
d="M604 433l-342 -341l316 4v-96h-476v477h96l-4 -317l341 341z" />
    <glyph glyph-name="minus" unicode="&#x2212;" horiz-adv-x="592" 
d="M556 199h-521v89h521v-89z" />
    <glyph glyph-name="fraction" unicode="&#x2215;" horiz-adv-x="73" 
d="M244 667l-337 -667h-77l336 667h78z" />
    <glyph glyph-name="dotmath" unicode="&#x22c5;" horiz-adv-x="231" 
d="M116 399q62 0 62 -62q0 -32 -18 -48q-15 -15 -44 -15q-32 0 -48 19q-14 16 -14 44q0 62 62 62z" />
    <glyph glyph-name="Caron" horiz-adv-x="434" 
d="M393 863l-130 -127h-93l-130 127h102l75 -72l73 72h103z" />
    <glyph glyph-name="Breve" horiz-adv-x="434" 
d="M362 867q0 -78 -36 -105q-32 -24 -109 -24q-87 0 -118 32q-27 28 -27 97h67q0 -39 16 -53t62 -14q45 0 61 13q18 15 18 54h66z" />
    <glyph glyph-name="Tilde" horiz-adv-x="434" 
d="M417 796l-39 -20q-65 -33 -105 -33q-31 0 -58 17l-32 20q-14 7 -27 7q-18 0 -45 -14l-59 -29l-35 64l73 37q37 16 67 16q33 0 63 -18q31 -19 32 -19q14 -7 27 -7q20 0 48 14l56 29z" />
    <glyph glyph-name="Hungarumlaut" horiz-adv-x="433" 
d="M460 862l-126 -126h-102l127 126h101zM279 862l-126 -126h-102l127 126h101z" />
    <glyph glyph-name="Cedilla" horiz-adv-x="434" 
d="M233 -39q34 -2 51 -23q14 -18 14 -48q0 -43 -23 -62q-21 -19 -63 -19q-47 0 -67 19q-19 18 -19 53h51q0 -15 7 -20.5t28 -5.5q19 0 26 7t7 26q0 30 -36 32q-8 1 -29 1v79h53v-39z" />
    <glyph glyph-name="Ogonek" horiz-adv-x="414" 
d="M175 14l100 -9q-94 -44 -94 -108q0 -62 83 -62q13 0 32 2v-68q-26 -5 -52 -5q-67 0 -107 33q-39 33 -39 92q0 78 77 125z" />
    <glyph glyph-name="Macron" horiz-adv-x="434" 
d="M392 783h-350v72h350v-72z" />
    <glyph glyph-name="Commaaccent" horiz-adv-x="438" 
d="M261 -42v-35q0 -47 -10 -75t-37 -55l-40 -40l-62 61q30 28 36 35t11 17q10 18 10 57v35h92z" />
    <glyph glyph-name="commaaccent" horiz-adv-x="438" 
d="M261 -42v-35q0 -47 -10 -75t-37 -55l-40 -40l-62 61q30 28 36 35t11 17q10 18 10 57v35h92z" />
    <glyph glyph-name="parenleft.numr" horiz-adv-x="232" 
d="M228 169q-79 0 -117 35q-33 32 -44 101q-7 47 -7 160t7 159q11 70 44 101q38 36 117 36v-65q-48 0 -68 -23q-20 -21 -26 -74q-3 -34 -3 -134q0 -93 2.5 -128t11.5 -57q11 -27 35 -38q19 -8 48 -8v-65z" />
    <glyph glyph-name="one.taboldstyle" horiz-adv-x="567" 
d="M352 0h-99v541l-110 -104l-63 68l182 162h90v-667z" />
    <glyph glyph-name="two.taboldstyle" horiz-adv-x="567" 
d="M68 511q0 97 69 135q50 27 145 28q117 1 169 -46q54 -47 53 -152q0 -72 -29 -114q-23 -37 -74 -60q-28 -13 -109 -38q-58 -18 -76.5 -25.5t-29.5 -18.5q-11 -12 -16 -29t-5 -48v-54h338v-89h-438v162q0 74 36 115q29 32 90 53l114 35q59 19 77 39q22 24 22 72
q0 66 -27 88q-25 20 -93 20q-70 0 -95 -18q-23 -16 -23 -55h-98z" />
    <glyph glyph-name="zero.dnom" 
d="M208 407q95 0 126 -57q16 -31 16 -91v-72v-22q0 -50 -5.5 -78.5t-19.5 -47.5q-32 -46 -117 -46q-96 0 -125 61q-16 35 -16 117v59q0 52 5.5 80.5t18.5 48.5q31 48 117 48zM279 200q0 93 -7 114q-7 16 -21.5 23.5t-42.5 7.5t-42.5 -8t-20.5 -25q-7 -22 -7 -112
q0 -91 7 -113q7 -17 21 -24.5t42 -7.5q29 0 43.5 8t20.5 26q7 21 7 111z" />
    <glyph glyph-name="nine.dnom" horiz-adv-x="412" 
d="M145 97q2 -26 14.5 -35.5t44.5 -9.5q25 0 38.5 5t20.5 18q12 19 13 80q-31 -22 -77 -23q-72 -1 -103 37q-27 33 -26 101q0 75 37 107q33 29 98 29q82 0 112 -48q26 -43 27 -143q0 -99 -7 -135q-11 -49 -47 -71q-32 -19 -87 -19q-69 0 -98 28q-25 25 -28 79h68zM139 271
q0 -44 13.5 -60.5t49.5 -16.5q39 0 56 20q15 18 16 53q0 43 -19 61q-16 16 -50 16q-39 0 -54 -18q-12 -17 -12 -55z" />
    <glyph glyph-name="eight.dnom" 
d="M305 208q23 -9 33 -31.5t10 -63.5q0 -73 -43 -100q-32 -20 -96 -20q-74 0 -107 28t-33 92q0 39 10 61q10 24 34 34q-22 8 -31 28.5t-9 61.5q0 65 38 89q31 20 98 20q76 0 107 -27q29 -25 29 -82q0 -39 -9 -59q-9 -22 -31 -31zM209 347q-41 0 -55 -16q-12 -13 -12 -39
q0 -31 14.5 -43t52.5 -12q41 0 55 15q11 12 11 40q0 30 -15 42.5t-51 12.5zM209 179q-38 0 -54 -14.5t-16 -49.5q0 -36 19 -50q16 -12 51 -12q38 0 54 14.5t16 47.5q0 38 -19 52q-16 12 -51 12z" />
    <glyph glyph-name="seven.dnom" 
d="M349 351l-171 -351h-76l170 339h-195v61h272v-49z" />
    <glyph glyph-name="six.dnom" horiz-adv-x="412" 
d="M267 299q-2 26 -14 35.5t-44 9.5q-26 0 -39.5 -5t-20.5 -18q-12 -19 -12 -80q31 22 77 23q72 1 103 -36q27 -33 26 -101q0 -75 -37 -107q-33 -29 -98 -29q-82 0 -113 48q-26 43 -27 143q0 98 7 134q11 49 47 71q32 19 87 19q69 0 98 -28q26 -25 28 -79h-68zM274 126
q0 43 -13.5 59.5t-49.5 16.5q-40 0 -57 -20q-16 -18 -16 -53q0 -42 19 -60q17 -16 51 -16q39 0 54 18q12 17 12 55z" />
    <glyph glyph-name="five.dnom" 
d="M76 94h69q0 -21 15.5 -30t52.5 -9q43 0 59 21q13 17 13 53q0 44 -16 60t-54 16q-57 0 -63 -40h-68v235h249v-59h-181v-96q21 21 71 21q78 0 107 -37q24 -31 24 -98q0 -79 -42 -112q-34 -26 -99 -26q-69 0 -102 23q-35 25 -35 78z" />
    <glyph glyph-name="four.dnom" 
d="M351 95h-57v-95h-68v95h-180v50l183 255h65v-246h57v-59zM226 154v143l-101 -143h101z" />
    <glyph glyph-name="three.dnom" 
d="M314 210q19 -13 26.5 -34.5t7.5 -59.5q-1 -67 -40 -96q-34 -25 -103 -25q-78 0 -109 29q-27 25 -30 83h67q2 -32 18 -41q14 -9 54 -9q50 -1 64 12q12 12 12 47q0 43 -16 54q-14 10 -58 10h-61v61h61q43 0 56 9.5t14 39.5q0 35 -16 45q-15 10 -54 10q-42 0 -56 -9.5
t-16 -40.5h-66q3 66 38 90q31 22 100 22q76 0 108 -31q28 -27 29 -83q0 -33 -6.5 -51.5t-23.5 -31.5z" />
    <glyph glyph-name="two.dnom" 
d="M70 301q0 63 46 88q32 18 93 18q75 0 108 -30q33 -29 33 -90q0 -42 -14 -64t-53 -40q-19 -10 -64 -25q-57 -19 -68 -31q-10 -12 -10 -37v-28h208v-62h-278v100q0 66 56 95q20 10 55 20l44 12q33 10 43.5 21.5t10.5 38.5q0 36 -16 48q-15 11 -54 11q-41 0 -56 -9.5
t-15 -35.5h-69z" />
    <glyph glyph-name="one.dnom" 
d="M249 0h-70v303l-61 -53l-43 47l118 103h56v-400z" />
    <glyph glyph-name="zero.numr" 
d="M208 674q95 0 126 -57q16 -31 16 -91v-72v-22q0 -50 -5.5 -78.5t-19.5 -47.5q-32 -46 -117 -46q-96 0 -125 61q-16 35 -16 116v59q0 53 5.5 81.5t18.5 48.5q31 48 117 48zM279 467q0 93 -7 114q-7 16 -21.5 23.5t-42.5 7.5t-42.5 -8t-20.5 -25q-7 -22 -7 -112
q0 -91 7 -113q7 -17 21 -24.5t42 -7.5q29 0 43.5 8t20.5 26q7 21 7 111z" />
    <glyph glyph-name="nine.numr" horiz-adv-x="412" 
d="M145 368q2 -26 14.5 -35.5t44.5 -9.5q25 0 38.5 5t20.5 17q12 20 13 81q-31 -22 -77 -23q-72 -1 -103 36q-27 33 -26 101q0 75 37 107q33 29 98 29q82 0 112 -48q26 -43 27 -143q0 -98 -7 -134q-11 -49 -47 -71q-32 -19 -87 -19q-69 0 -98 28q-25 25 -28 79h68zM139 541
q0 -43 13.5 -59.5t49.5 -16.5q39 0 56 20q15 18 16 53q0 42 -19 60q-16 16 -50 16q-39 0 -54 -18q-12 -17 -12 -55z" />
    <glyph glyph-name="eight.numr" 
d="M305 475q23 -9 33 -31.5t10 -63.5q0 -73 -43 -100q-32 -20 -96 -20q-74 0 -107 28t-33 92q0 39 10 61q10 24 34 34q-22 8 -31 28.5t-9 61.5q0 65 38 89q31 20 98 20q76 0 107 -27q29 -25 29 -82q0 -39 -9 -59q-9 -22 -31 -31zM209 614q-41 0 -55 -16q-12 -13 -12 -39
q0 -31 14.5 -43t52.5 -12q41 0 55 15q11 12 11 40q0 30 -15 42.5t-51 12.5zM209 447q-38 0 -54 -15t-16 -50q0 -36 19 -50q16 -12 51 -12q38 0 54 14.5t16 47.5q0 39 -19 53q-16 12 -51 12z" />
    <glyph glyph-name="seven.numr" 
d="M349 618l-171 -351h-76l170 339h-195v61h272v-49z" />
    <glyph glyph-name="six.numr" horiz-adv-x="412" 
d="M267 570q-2 25 -14 34.5t-44 9.5q-26 0 -39.5 -5t-20.5 -17q-12 -20 -12 -81q31 23 77 24q72 1 103 -37q27 -33 26 -101q0 -75 -37 -107q-33 -29 -98 -29q-82 0 -113 48q-26 43 -27 143q0 99 7 134q11 49 47 71q32 19 87 19q69 0 98 -28q26 -25 28 -78h-68zM274 396
q0 44 -13.5 60.5t-49.5 16.5q-40 0 -57 -20q-16 -18 -16 -53q0 -43 19 -61q17 -16 51 -16q39 0 54 18q12 17 12 55z" />
    <glyph glyph-name="five.numr" 
d="M76 361h69q0 -21 15.5 -30t52.5 -9q43 0 59 21q13 17 13 53q0 44 -16 60t-54 16q-57 0 -63 -40h-68v235h249v-59h-181v-96q21 21 71 21q78 0 107 -37q24 -31 24 -98q0 -79 -42 -112q-34 -26 -99 -26q-69 0 -102 23q-35 25 -35 78z" />
    <glyph glyph-name="four.numr" 
d="M351 362h-57v-95h-68v95h-180v50l183 255h65v-246h57v-59zM226 421v143l-101 -143h101z" />
    <glyph glyph-name="three.numr" 
d="M314 475q19 -13 26.5 -34t7.5 -59q-1 -67 -40 -96q-34 -25 -103 -25q-78 0 -109 29q-27 25 -30 83h67q2 -32 18 -41q14 -9 54 -9q50 -1 64 12q12 12 12 46q0 43 -16 54q-14 10 -58 10h-61v61h61q43 0 56 9.5t14 40.5q0 35 -16 45q-15 10 -54 10q-42 0 -56 -9.5t-16 -40.5
h-66q3 66 38 90q31 22 100 22q76 0 108 -31q28 -27 29 -83q0 -34 -6.5 -52.5t-23.5 -31.5z" />
    <glyph glyph-name="two.numr" 
d="M70 568q0 63 46 88q32 18 93 18q75 0 108 -30q33 -29 33 -90q0 -42 -14 -64t-53 -40q-19 -10 -64 -25q-57 -19 -68 -31q-10 -12 -10 -37v-28h208v-62h-278v100q0 66 56 95q20 10 55 20l44 12q33 10 43.5 21.5t10.5 38.5q0 36 -16 48q-15 11 -54 11q-41 0 -56 -9.5
t-15 -35.5h-69z" />
    <glyph glyph-name="one.numr" 
d="M249 267h-70v303l-61 -53l-43 47l118 103h56v-400z" />
    <glyph glyph-name="zerooldstyle" horiz-adv-x="569" 
d="M273 674q111 0 165 -50q44 -41 56 -125q4 -30 5 -52.5t1 -113.5q0 -86 -1 -112.5t-5 -55.5q-12 -84 -57 -125q-53 -48 -164 -48q-154 0 -200 99q-15 31 -21 74t-6 118v50q0 91 1 113.5t5 52.5q12 84 56 125q53 50 165 50zM273 584q-57 0 -85 -19q-26 -17 -35 -56
q-7 -31 -7 -96v-80v-79q0 -66 7 -96q9 -39 35 -56q28 -19 85 -19t85 19q26 18 35 58q7 30 7 95l-1 78q0 128 -1 146q-5 58 -30 80q-27 25 -95 25z" />
    <glyph glyph-name="nineoldstyle" horiz-adv-x="559" 
d="M401 271q-26 -23 -57.5 -33.5t-74.5 -11.5h-10q-113 0 -162 63q-44 55 -43 164q2 121 63 175q53 48 156 47q84 -1 138 -35q48 -30 67 -83q22 -58 22 -197q1 -155 -12 -224q-16 -79 -76 -114q-52 -31 -142 -31q-136 0 -183 77q-11 18 -14.5 34.5t-6.5 57.5h96
q4 -50 28 -65q22 -14 79 -14q54 0 79 13q26 15 37.5 52.5t15.5 124.5zM151 453q0 -85 28 -113q24 -24 85 -24q75 0 106 36q27 31 28 97q2 77 -31 108q-29 27 -93 28q-73 1 -99 -33q-24 -29 -24 -99z" />
    <glyph glyph-name="eightoldstyle" horiz-adv-x="567" 
d="M438 346q38 -16 55 -53.5t17 -106.5q0 -118 -70 -162q-51 -32 -156 -32q-121 0 -173 44q-54 46 -54 150q0 67 15 103q17 41 57 57q-37 15 -51.5 49t-14.5 102q0 105 62 144q50 33 159 33q124 0 173 -44q47 -41 47 -133q0 -64 -13 -96q-15 -39 -53 -55zM283 584
q-73 0 -98 -22q-23 -21 -23 -76q0 -61 30 -80q25 -16 91 -16q75 0 99 22q23 20 23 74q0 62 -31 82q-25 16 -91 16zM284 300q-42 0 -65 -5t-36 -18q-26 -23 -26 -86q0 -69 34 -91q26 -17 93 -17q75 0 100 23q26 24 26 85q0 64 -26 86.5t-100 22.5z" />
    <glyph glyph-name="sevenoldstyle" horiz-adv-x="477" 
d="M460 582l-292 -582h-109l292 577h-333v90h442v-85z" />
    <glyph glyph-name="sixoldstyle" horiz-adv-x="559" 
d="M153 396q26 23 57.5 33.5t74.5 11.5h10q113 0 162 -63q43 -55 42 -164q-1 -121 -62 -175q-54 -48 -156 -47q-84 1 -138 35q-48 30 -67 83q-22 58 -23 197q0 155 13 224q16 79 76 114q52 31 142 31q136 0 183 -77q11 -18 14.5 -34.5t5.5 -57.5h-95q-4 50 -28 65
q-22 14 -79 14q-54 0 -79 -13q-26 -15 -37.5 -52.5t-15.5 -124.5zM402 214q0 85 -27 113q-24 24 -85 24q-75 0 -106 -36q-28 -31 -29 -97q-1 -77 32 -108q29 -27 93 -28q73 -1 99 33q23 29 23 99z" />
    <glyph glyph-name="three.taboldstyle" horiz-adv-x="567" 
d="M433 350q38 -16 53.5 -49t15.5 -100q0 -125 -67 -172q-51 -37 -158 -37q-111 0 -164 37q-57 40 -57 127h99q0 -43 32 -59q27 -14 90 -14q73 0 100 25q26 24 26 84q0 51 -8 71q-9 23 -33.5 30.5t-84.5 7.5h-96v90h96q40 0 62 4.5t34 14.5q24 21 24 78q0 39 -9 58
q-10 21 -35 29.5t-76 8.5q-72 0 -99 -19q-24 -16 -24 -54h-100q0 97 73 135q52 28 150 28q124 0 172 -44q47 -42 47 -140q0 -58 -12 -87q-14 -36 -51 -53z" />
    <glyph glyph-name="four.taboldstyle" horiz-adv-x="567" 
d="M523 174h-96v-174h-95v174h-289v84l290 409h94v-404h96v-89zM332 263v263l-181 -263h181z" />
    <glyph glyph-name="five.taboldstyle" horiz-adv-x="567" 
d="M171 401q15 17 48.5 27t72.5 10q82 0 128 -22t67 -72q19 -47 19 -131q0 -129 -64 -179q-53 -42 -165 -42q-106 0 -157 38q-53 40 -53 126h97q0 -44 28 -60q25 -13 85 -13q52 0 79 10q27 11 39 37.5t12 78.5q0 48 -5 72t-17 39q-24 28 -95 28q-69 0 -97 -23
q-22 -17 -22 -51h-95v393h409v-90h-314v-176z" />
    <glyph glyph-name="six.taboldstyle" horiz-adv-x="567" 
d="M157 396q26 23 57.5 33.5t74.5 11.5h10q113 0 162 -63q43 -55 42 -164q-1 -121 -62 -175q-54 -48 -156 -47q-84 1 -138 35q-48 30 -67 83q-22 58 -23 197q0 155 13 224q16 79 76 114q52 31 142 31q136 0 183 -77q11 -18 14.5 -34.5t5.5 -57.5h-95q-4 50 -28 65
q-22 14 -79 14q-54 0 -79 -13q-26 -15 -37.5 -52.5t-15.5 -124.5zM406 214q0 85 -27 113q-24 24 -85 24q-75 0 -106 -36q-28 -31 -29 -97q-1 -77 32 -108q29 -27 93 -28q73 -1 99 33q23 29 23 99z" />
    <glyph glyph-name="seven.taboldstyle" horiz-adv-x="567" 
d="M504 582l-292 -582h-109l292 577h-333v90h442v-85z" />
    <glyph glyph-name="eight.taboldstyle" horiz-adv-x="567" 
d="M438 346q38 -16 55 -53.5t17 -106.5q0 -118 -70 -162q-51 -32 -156 -32q-121 0 -173 44q-54 46 -54 150q0 67 15 103q17 41 57 57q-37 15 -51.5 49t-14.5 102q0 105 62 144q50 33 159 33q124 0 173 -44q47 -41 47 -133q0 -64 -13 -96q-15 -39 -53 -55zM283 584
q-73 0 -98 -22q-23 -21 -23 -76q0 -61 30 -80q25 -16 91 -16q75 0 99 22q23 20 23 74q0 62 -31 82q-25 16 -91 16zM284 300q-42 0 -65 -5t-36 -18q-26 -23 -26 -86q0 -69 34 -91q26 -17 93 -17q75 0 100 23q26 24 26 85q0 64 -26 86.5t-100 22.5z" />
    <glyph glyph-name="fiveoldstyle" horiz-adv-x="570" 
d="M172 401q15 17 48.5 27t72.5 10q82 0 128 -22t67 -72q19 -47 19 -131q0 -129 -64 -179q-53 -42 -165 -42q-106 0 -157 38q-53 40 -53 126h97q0 -44 28 -60q25 -13 85 -13q52 0 79 10q27 11 39 37.5t12 78.5q0 48 -5 72t-17 39q-24 28 -95 28q-69 0 -97 -23
q-22 -17 -22 -51h-95v393h409v-90h-314v-176z" />
    </font>
</defs>
</svg>
