<?xml version="1.0" standalone="no"?>
<!DOCTYPE svg PUBLIC "-//W3C//DTD SVG 1.1//EN" "http://www.w3.org/Graphics/SVG/1.1/DTD/svg11.dtd" >
<svg xmlns="http://www.w3.org/2000/svg" xmlns:xlink="http://www.w3.org/1999/xlink" version="1.1">
<metadata>
Created by FontForge 20201107 at Thu Jun 19 18:13:22 2014
 By Jimmy Wärting
Copyright (c) 2014 by The Foundry. All rights reserved.
</metadata>
<defs>
<font id="LandRoverWeb-Light" horiz-adv-x="365" >
  <font-face 
    font-family="Land Rover Web Light"
    font-weight="300"
    font-stretch="normal"
    units-per-em="1000"
    panose-1="0 0 0 0 0 0 0 0 0 0"
    ascent="700"
    descent="-300"
    x-height="478"
    cap-height="667"
    bbox="-195 -199 1480 1021"
    underline-thickness="50"
    underline-position="-100"
    unicode-range="U+0020-FB04"
  />
<missing-glyph horiz-adv-x="270" 
d="M27 0v667h216v-667h-216zM216 27v613h-162v-613h162z" />
    <glyph glyph-name="fi" unicode="fi" horiz-adv-x="521" 
d="M270 704v-40h-17q-36 0 -54 -3.5t-29 -13.5q-23 -20 -23 -80v-89h123v-39h-123v-439h-43v439h-80v39h80v99q0 86 50 112q29 15 97 15h19zM448 643q0 -33 -32 -33t-32 33q0 31 32 31t32 -31zM437 0h-43v478h43v-478z" />
    <glyph glyph-name="fl" unicode="fl" horiz-adv-x="533" 
d="M270 704v-40h-17q-36 0 -54 -3.5t-29 -13.5q-23 -20 -23 -80v-89h123v-39h-123v-439h-43v439h-80v39h80v99q0 86 50 112q29 15 97 15h19zM497 34v-38h-16q-60 0 -76 38q-11 24 -11 92v571h43v-564q0 -67 9 -83q10 -16 44 -16h7z" />
    <glyph glyph-name="IJ" unicode="IJ" horiz-adv-x="766" 
d="M142 0h-44v667h44v-667zM674 206q0 -119 -45 -166q-45 -48 -150 -48q-108 0 -154 44q-43 42 -43 134h41q0 -84 44 -113q34 -23 112 -23q87 0 119 36.5t32 133.5v463h44v-461z" />
    <glyph glyph-name="ij" unicode="ij" horiz-adv-x="422" 
d="M138 643q0 -33 -32 -33t-32 33q0 31 32 31t32 -31zM127 0h-43v478h43v-478zM349 643q0 -33 -32 -33t-32 33q0 31 32 31t32 -31zM172 -190v40h15q63 0 86 22q22 22 22 77v529h43v-525q0 -82 -38 -115q-34 -28 -109 -28h-19z" />
    <glyph glyph-name="f_f" unicode="ff" horiz-adv-x="584" 
d="M560 704v-40h-17q-36 0 -54 -3.5t-29 -13.5q-23 -20 -23 -80v-89h123v-39h-123v-439h-43v439h-247v-439h-43v439h-80v39h80v99q0 86 50 112q29 15 97 15h19v-40h-17q-36 0 -54 -3.5t-29 -13.5q-23 -20 -23 -80v-89h247v99q0 86 50 112q29 15 97 15h19z" />
    <glyph glyph-name="f_f_i" unicode="ffi" horiz-adv-x="811" 
d="M560 704v-40h-17q-36 0 -54 -3.5t-29 -13.5q-23 -20 -23 -80v-89h123v-39h-123v-439h-43v439h-247v-439h-43v439h-80v39h80v99q0 86 50 112q29 15 97 15h19v-40h-17q-36 0 -54 -3.5t-29 -13.5q-23 -20 -23 -80v-89h247v99q0 86 50 112q29 15 97 15h19zM727 0h-43v478h43
v-478zM738 643q0 -33 -32 -33t-32 33q0 31 32 31t32 -31z" />
    <glyph glyph-name="f_f_l" unicode="ffl" horiz-adv-x="823" 
d="M560 704v-40h-17q-36 0 -54 -3.5t-29 -13.5q-23 -20 -23 -80v-89h123v-39h-123v-439h-43v439h-247v-439h-43v439h-80v39h80v99q0 86 50 112q29 15 97 15h19v-40h-17q-36 0 -54 -3.5t-29 -13.5q-23 -20 -23 -80v-89h247v99q0 86 50 112q29 15 97 15h19zM787 34v-38h-16
q-60 0 -76 38q-11 24 -11 92v571h43v-564q0 -67 9 -83q10 -16 44 -16h7z" />
    <glyph glyph-name="f_j" unicode="fj" horiz-adv-x="521" 
d="M270 704v-40h-17q-36 0 -54 -3.5t-29 -13.5q-23 -20 -23 -80v-89h123v-39h-123v-439h-43v439h-80v39h80v99q0 86 50 112q29 15 97 15h19zM448 643q0 -33 -32 -33t-32 33q0 31 32 31t32 -31zM271 -190v40h15q63 0 86 22q22 22 22 77v529h43v-525q0 -82 -38 -115
q-34 -28 -109 -28h-19z" />
    <glyph glyph-name="f_t" unicode="ft" horiz-adv-x="570" 
d="M560 36v-40h-9q-87 0 -124 36q-33 33 -33 101v306h-247v-439h-43v439h-80v39h80v99q0 86 50 112q29 15 97 15h19v-40h-17q-36 0 -54 -3.5t-29 -13.5q-23 -20 -23 -80v-89h247v189h43v-189h123v-39h-123v-306q0 -54 25.5 -75.5t90.5 -21.5h7z" />
    <glyph glyph-name=".notdef" horiz-adv-x="270" 
d="M27 0v667h216v-667h-216zM216 27v613h-162v-613h162z" />
    <glyph glyph-name="glyph1" horiz-adv-x="0" 
 />
    <glyph glyph-name="glyph2" horiz-adv-x="270" 
 />
    <glyph glyph-name="space" unicode=" " horiz-adv-x="270" 
 />
    <glyph glyph-name="exclam" unicode="!" horiz-adv-x="281" 
d="M161 190h-42v477h42v-477zM175 27q0 -34 -35 -34q-34 0 -34 34t34 34q35 0 35 -34z" />
    <glyph glyph-name="quotedbl" unicode="&#x22;" horiz-adv-x="430" 
d="M311 460h-41v207h41v-207zM161 460h-41v207h41v-207z" />
    <glyph glyph-name="numbersign" unicode="#" horiz-adv-x="562" 
d="M546 424h-134l-41 -154h123v-38h-133l-61 -232h-40l61 232h-141l-61 -232h-40l61 232h-124v38h134l41 154h-123v38h134l62 232h40l-63 -232h141l63 232h40l-63 -232h124v-38zM372 424h-141l-40 -154h140z" />
    <glyph glyph-name="dollar" unicode="$" horiz-adv-x="552" 
d="M482 188q0 -103 -51 -148q-44 -39 -136 -40v-99l-41 1v98q-101 1 -144 35q-41 31 -41 99h42q0 -55 38 -76q32 -17 105 -18v288q-64 4 -98 17q-42 15 -61 49q-21 36 -21 101q0 95 53 137q43 34 127 35v95h41v-95q100 -1 141 -35q39 -31 39 -99h-42q0 55 -35 76
q-31 17 -103 18v-260q78 -8 108 -18q43 -14 61 -48q18 -37 18 -113zM254 369v258q-80 -1 -110 -35q-28 -31 -28 -102q0 -78 40 -101q26 -15 98 -20zM441 192q0 57 -14 85q-12 24 -38.5 34t-93.5 15v-287q84 2 117 41q29 36 29 112z" />
    <glyph glyph-name="percent" unicode="%" horiz-adv-x="824" 
d="M599 667l-338 -667h-39l336 667h41zM307 467q0 -65 -2 -93t-8 -45q-23 -68 -115 -68t-115 68q-6 17 -8 45t-2 93q0 77 2.5 104.5t11.5 45.5q27 56 111 56q83 0 110 -56q9 -18 12 -47.5t3 -102.5zM270 467q0 99 -8 124q-7 24 -26 34.5t-54 10.5t-54 -10.5t-26 -34.5
q-8 -25 -8 -124q0 -66 2 -93.5t9 -41.5q15 -36 77 -36t77 36q11 26 11 135zM766 200q0 -65 -2 -93t-8 -45q-23 -68 -115 -68t-115 68q-6 17 -8 45t-2 93q0 77 2.5 104.5t11.5 45.5q27 56 111 56q83 0 110 -56q9 -18 12 -47.5t3 -102.5zM729 200q0 99 -8 124q-7 24 -26 34.5
t-54 10.5t-54 -10.5t-26 -34.5q-8 -25 -8 -124q0 -66 2 -93.5t9 -41.5q15 -36 77 -36t77 36q11 26 11 135z" />
    <glyph glyph-name="ampersand" unicode="&#x26;" horiz-adv-x="601" 
d="M564 332h-60v-113q0 -74 -9 -111q-11 -41 -37 -67q-49 -49 -171 -49q-77 0 -121 15q-48 17 -71 57q-23 42 -23 118q0 81 28 122q24 37 74 49q-54 15 -75 47.5t-21 102.5q0 100 51 138q44 33 143 33q106 0 151 -37q42 -34 44 -110h-42q-2 64 -42 87q-34 19 -110 19
q-94 0 -126 -32q-27 -28 -27 -100q0 -73 32.5 -100.5t120.5 -27.5h189v70h41v-70h61v-41zM462 219v113h-189q-63 0 -95 -12q-35 -13 -49 -46q-15 -32 -15 -95q0 -85 35.5 -115t137.5 -30q106 0 142 36q19 19 26 51.5t7 97.5z" />
    <glyph glyph-name="quotesingle" unicode="'" horiz-adv-x="281" 
d="M161 460h-41v207h41v-207z" />
    <glyph glyph-name="parenleft" unicode="(" horiz-adv-x="292" 
d="M252 -191q-84 0 -126 28q-38 25 -55 81q-31 104 -31 388q0 135 8 238.5t23 152.5q19 63 66 88q41 21 115 21v-38q-66 0 -98 -20q-23 -15 -37 -49q-15 -39 -25 -149.5t-10 -242.5q0 -145 12 -260q9 -95 23 -130q15 -39 45 -54q31 -15 90 -15v-39z" />
    <glyph glyph-name="parenright" unicode=")" horiz-adv-x="292" 
d="M252 306q0 -284 -31 -388q-19 -63 -66 -88q-41 -21 -115 -21v39q66 0 98 20q23 15 37 49q15 40 25 149.5t10 240.5q0 146 -12 261q-9 96 -23 131q-15 39 -45 54q-31 15 -90 15v38q84 0 126 -28q38 -25 55 -81q15 -49 23 -152.5t8 -238.5z" />
    <glyph glyph-name="asterisk" unicode="*" horiz-adv-x="523" 
d="M495 488l-203 -64l124 -167l-30 -22l-125 166l-123 -166l-31 22l125 167l-204 64l12 35l203 -63v207h38v-207l202 63z" />
    <glyph glyph-name="plus" unicode="+" horiz-adv-x="562" 
d="M519 220h-218v-220h-41v220h-218v40h218v218h41v-218h218v-40z" />
    <glyph glyph-name="comma" unicode="," horiz-adv-x="208" 
d="M126 -15q0 -47 -8.5 -71t-33.5 -45l-25 -22l-27 27l19 18q21 19 27 36.5t6 56.5v75h42v-75z" />
    <glyph glyph-name="hyphen" unicode="-" horiz-adv-x="480" 
d="M386 220h-292v40h292v-40z" />
    <glyph glyph-name="period" unicode="." horiz-adv-x="208" 
d="M139 27q0 -34 -35 -34q-34 0 -34 34t34 34q35 0 35 -34z" />
    <glyph glyph-name="slash" unicode="/" horiz-adv-x="494" 
d="M478 755l-420 -839h-42l420 839h42z" />
    <glyph glyph-name="zero" unicode="0" horiz-adv-x="561" 
d="M484 333q0 -111 -3 -157.5t-13 -73.5q-36 -109 -188 -109q-81 0 -128 30q-42 27 -59 79q-10 27 -13 73.5t-3 157.5q0 127 4.5 174.5t19.5 78.5q24 48 72 70q42 18 107 18q74 0 119 -24q39 -21 60 -64q15 -31 20 -80.5t5 -172.5zM441 333q0 171 -14 216q-15 47 -52 67
q-34 18 -95 18q-69 0 -104 -24q-29 -20 -42 -61q-14 -45 -14 -216q0 -111 4 -159t15 -73q16 -36 49 -52t92 -16q63 0 98 19q29 16 43 49q12 26 16 75.5t4 156.5z" />
    <glyph glyph-name="one" unicode="1" horiz-adv-x="448" 
d="M264 0h-43v614l-138 -124l-28 28l168 149h41v-667z" />
    <glyph glyph-name="two" unicode="2" horiz-adv-x="550" 
d="M480 489q0 -90 -48 -137q-31 -30 -116 -58l-103 -35q-56 -24 -72 -55q-13 -25 -13 -77v-87h350v-40h-393v146q0 57 27.5 92.5t89.5 59.5l116 39q63 23 85 47q34 35 34 105q0 56 -16 88q-28 57 -139 57q-86 0 -122 -25q-33 -24 -33 -76h-42q0 82 57 114q46 27 138 27
q101 0 149 -39q51 -41 51 -146z" />
    <glyph glyph-name="three" unicode="3" horiz-adv-x="551" 
d="M474 182q0 -111 -58 -154q-48 -35 -148 -35q-102 0 -149 34t-47 108h42q0 -59 42 -82q36 -20 112 -20q95 0 129 33q34 32 34 113q0 50 -9 78t-30 44q-19 14 -46.5 19.5t-75.5 5.5h-94v41h94q57 0 87 9q35 11 51 40q17 29 17 85q0 52 -14 80t-46.5 40.5t-94.5 12.5
q-87 0 -123 -26q-33 -23 -33 -75h-42q0 82 58 114q47 27 140 27q115 0 159 -44q39 -39 39 -127q0 -66 -20 -102q-22 -39 -72 -54q58 -14 80 -62q18 -36 18 -103z" />
    <glyph glyph-name="four" unicode="4" horiz-adv-x="552" 
d="M494 199h-98v-199h-43v199h-299v39l297 429h45v-428h98v-40zM353 239v361l-249 -361h249z" />
    <glyph glyph-name="five" unicode="5" horiz-adv-x="562" 
d="M483 203q0 -121 -53 -168q-47 -42 -153 -42q-104 0 -149 36q-42 34 -42 106h41q0 -60 40 -82q34 -19 110 -19q98 0 132 41q31 36 31 124q0 64 -10 98q-13 41 -44 60q-34 20 -97 20q-148 0 -152 -88h-40v378h364v-40h-323v-261q40 52 153 52q114 0 158 -63q34 -49 34 -152
z" />
    <glyph glyph-name="six" unicode="6" horiz-adv-x="559" 
d="M482 204q0 -117 -54 -167q-47 -44 -144 -44q-75 0 -124 32q-44 28 -62 77q-21 58 -21 203q0 165 13 236q13 73 68 106q47 27 129 27q185 0 185 -141h-42q0 101 -142 101q-72 0 -108 -23q-30 -20 -43 -62q-9 -31 -12.5 -76.5t-3.5 -141.5q48 87 167 87q112 0 156 -56
q38 -50 38 -158zM440 203q0 104 -37 142q-33 32 -110 32q-168 0 -168 -169q0 -98 43 -139q38 -35 115 -35q91 0 126 44q31 38 31 125z" />
    <glyph glyph-name="seven" unicode="7" horiz-adv-x="455" 
d="M427 628l-291 -628h-47l292 627h-352v40h398v-39z" />
    <glyph glyph-name="eight" unicode="8" horiz-adv-x="562" 
d="M485 181q0 -111 -57 -154q-47 -34 -147 -34q-114 0 -160 46q-44 44 -44 142q0 80 28 120q25 34 75 46q-54 14 -75.5 48.5t-21.5 107.5q0 100 52 138q45 33 146 33q115 0 159 -44q39 -39 39 -127q0 -70 -21 -105q-22 -37 -75 -51q57 -14 81 -57q21 -39 21 -109zM436 501
q0 52 -14 80t-46.5 40.5t-94.5 12.5q-96 0 -127 -32q-28 -28 -28 -99q0 -87 42 -115q33 -22 113 -22q58 0 88 10q35 11 51 39q16 30 16 86zM442 178q0 93 -43 124q-34 24 -118 24q-62 0 -94 -10q-36 -12 -51 -43q-16 -32 -16 -94q0 -61 16 -92q15 -29 47.5 -41t97.5 -12
q61 0 92 10q37 12 53 43t16 91z" />
    <glyph glyph-name="nine" unicode="9" horiz-adv-x="557" 
d="M480 362q0 -165 -13 -236q-13 -73 -68 -106q-47 -27 -129 -27q-185 0 -185 141h42q0 -101 142 -101q72 0 108 23q30 20 43 62q9 31 12.5 76.5t3.5 141.5q-48 -87 -167 -87q-112 0 -156 56q-38 50 -38 158q0 117 54 167q47 44 144 44q75 0 124 -32q44 -28 62 -77
q21 -58 21 -203zM432 459q0 98 -43 139q-38 35 -115 35q-91 0 -126 -44q-31 -38 -31 -125q0 -104 37 -142q33 -32 110 -32q168 0 168 169z" />
    <glyph glyph-name="colon" unicode=":" horiz-adv-x="208" 
d="M139 452q0 -34 -35 -34q-34 0 -34 34t34 34q35 0 35 -34zM139 27q0 -34 -35 -34q-34 0 -34 34t34 34q35 0 35 -34z" />
    <glyph glyph-name="semicolon" unicode=";" horiz-adv-x="208" 
d="M139 452q0 -34 -35 -34q-34 0 -34 34t34 34q35 0 35 -34zM126 -15q0 -47 -8.5 -71t-33.5 -45l-25 -22l-27 27l19 18q21 19 27 36.5t6 56.5v75h42v-75z" />
    <glyph glyph-name="less" unicode="&#x3c;" horiz-adv-x="562" 
d="M522 38l-17 -38l-465 220v40l465 218l17 -38l-431 -199z" />
    <glyph glyph-name="equal" unicode="=" horiz-adv-x="563" 
d="M520 317h-477v40h477v-40zM520 124h-477v40h477v-40z" />
    <glyph glyph-name="greater" unicode="&#x3e;" horiz-adv-x="562" 
d="M522 220l-465 -220l-17 38l431 203l-431 199l17 38l465 -218v-40z" />
    <glyph glyph-name="question" unicode="?" horiz-adv-x="420" 
d="M391 508q0 -67 -30 -105q-24 -32 -77 -55q-45 -20 -56.5 -40.5t-11.5 -81.5v-36h-43v53q0 58 19 88t68 51t68 46q21 29 21 80q0 76 -35 103q-30 23 -101 23q-79 0 -111 -26q-28 -23 -28 -75h-40q0 81 50 114q42 27 127 27q100 0 141 -41q39 -39 39 -125zM230 27
q0 -34 -35 -34q-34 0 -34 34t34 34q35 0 35 -34z" />
    <glyph glyph-name="at" unicode="@" horiz-adv-x="764" 
d="M682 382q0 -81 -8 -130q-12 -67 -40 -95q-22 -22 -51.5 -30.5t-80.5 -8.5v49q-40 -55 -131 -55q-103 0 -135 61q-21 41 -21 137q0 69 9 105q11 47 43 70q36 25 103 25q92 0 132 -55v48h38v-347q40 0 63 23q24 24 32 79q7 45 7 132q0 85 -10.5 128t-36.5 69q-26 25 -76 37
t-131 12q-158 0 -208 -52q-58 -59 -58 -274q0 -221 50 -278q28 -32 80 -46.5t140 -14.5q95 0 143 17q56 20 86 71l35 -18q-35 -71 -126 -94q-53 -14 -143 -14q-105 0 -164 19q-52 17 -83 53q-30 35 -44 109t-14 201q0 103 11 167q17 93 58 132q33 31 89.5 45.5t145.5 14.5
q100 0 158 -15q51 -13 82 -42q33 -31 45 -86q11 -51 11 -149zM502 310q0 97 -34 132q-30 31 -101 31q-77 0 -98 -52q-13 -30 -13 -111q0 -54 4 -79.5t14 -42.5q24 -39 94 -39q80 0 109 40q25 36 25 121z" />
    <glyph glyph-name="A" unicode="A" horiz-adv-x="607" 
d="M581 0h-47l-78 204h-308l-77 -204h-45l254 667h46zM441 242l-138 373l-140 -373h278z" />
    <glyph glyph-name="B" unicode="B" horiz-adv-x="646" 
d="M562 183q0 -86 -31 -128q-26 -37 -84 -48q-36 -7 -126 -7h-223v667h217q90 0 121 -5q59 -9 87 -42q33 -40 33 -123q0 -129 -84 -154q47 -13 68.5 -51.5t21.5 -108.5zM513 500q0 86 -49 112q-31 16 -107 16h-49h-167v-267h174q76 0 104 4q47 8 69 36q25 32 25 99zM518 180
q0 71 -24 103q-21 28 -69 36q-27 4 -111 4h-173v-283h173q85 0 109 3q49 7 70 35q25 32 25 102z" />
    <glyph glyph-name="C" unicode="C" horiz-adv-x="635" 
d="M562 170q0 -103 -60 -143q-52 -35 -165 -35q-122 0 -179 41q-52 36 -67 116q-9 51 -9 184t9 184q15 80 67 116q57 41 179 41q129 0 179 -46q46 -40 46 -131h-41q-1 52 -17 81q-18 29 -60 42q-41 13 -116 13q-99 0 -144 -34q-40 -30 -51 -100q-7 -42 -7 -166t6 -165
q11 -70 52 -100q45 -34 144 -34q117 0 158 34q34 30 35 102h41z" />
    <glyph glyph-name="D" unicode="D" horiz-adv-x="660" 
d="M578 334q0 -110 -8 -162.5t-30 -89.5q-30 -49 -83 -66q-47 -16 -133 -16h-226v667h226q97 0 146 -21q43 -18 70 -61q22 -37 30 -89.5t8 -161.5zM534 334q0 104 -7.5 155t-27.5 81q-22 33 -61.5 45.5t-119.5 12.5h-177v-588h177q86 0 127 15q34 13 54 43t27.5 81t7.5 155z
" />
    <glyph glyph-name="E" unicode="E" horiz-adv-x="583" 
d="M499 0h-401v667h401v-40h-356v-264h346v-40h-346v-283h356v-40z" />
    <glyph glyph-name="F" unicode="F" horiz-adv-x="558" 
d="M494 627h-352v-264h343v-40h-343v-323h-44v667h396v-40z" />
    <glyph glyph-name="G" unicode="G" horiz-adv-x="659" 
d="M573 363v-147q0 -144 -91 -194q-54 -30 -157 -30q-118 0 -173 43q-48 37 -62 118q-8 48 -8 180q0 135 9 185q15 80 67 116q58 40 181 40q130 0 184 -46q50 -41 50 -131h-42q-1 81 -52 110q-45 26 -149 26q-101 0 -147 -34q-40 -30 -51 -101q-6 -39 -6 -165
q0 -97 0.5 -117.5t4.5 -47.5q10 -70 50 -100q45 -34 146 -34q130 0 174 64q18 26 23.5 62.5t5.5 125.5v37h-202v40h245z" />
    <glyph glyph-name="H" unicode="H" horiz-adv-x="653" 
d="M555 0h-44v323h-369v-323h-44v667h44v-304h369v304h44v-667z" />
    <glyph glyph-name="I" unicode="I" horiz-adv-x="240" 
d="M142 0h-44v667h44v-667z" />
    <glyph glyph-name="J" unicode="J" horiz-adv-x="526" 
d="M434 206q0 -119 -45 -166q-45 -48 -150 -48q-108 0 -154 44q-43 42 -43 134h41q0 -84 44 -113q34 -23 112 -23q87 0 119 36.5t32 133.5v463h44v-461z" />
    <glyph glyph-name="K" unicode="K" horiz-adv-x="572" 
d="M548 0h-65l-341 314v-314h-44v667h43v-315l345 315h61l-368 -332z" />
    <glyph glyph-name="L" unicode="L" horiz-adv-x="509" 
d="M494 0h-396v667h44v-627h352v-40z" />
    <glyph glyph-name="M" unicode="M" horiz-adv-x="819" 
d="M721 0h-43v605l-246 -605h-47l-245 605v-605h-42v667h59l253 -620l251 620h60v-667z" />
    <glyph glyph-name="N" unicode="N" horiz-adv-x="651" 
d="M553 0h-56l-356 606v-606h-43v667h54l358 -605v605h43v-667z" />
    <glyph glyph-name="O" unicode="O" horiz-adv-x="665" 
d="M582 334q0 -87 -1.5 -118t-5.5 -61q-14 -82 -64 -119q-57 -44 -179 -44t-179 44q-50 37 -64 119q-4 30 -5.5 61t-1.5 118t1.5 118t5.5 60q14 82 64 119q57 43 179 43t179 -43q50 -37 64 -119q4 -29 5.5 -60t1.5 -118zM538 333q0 125 -6 164q-11 71 -51 101
q-47 35 -149 35t-149 -35q-40 -30 -51 -101q-6 -39 -6 -164t6 -164q11 -70 51 -101q47 -34 149 -34t149 34q40 31 51 101q6 39 6 164z" />
    <glyph glyph-name="P" unicode="P" horiz-adv-x="602" 
d="M556 488q0 -84 -31 -125q-27 -36 -85 -47q-37 -7 -127 -7h-171v-309h-44v667h215q92 0 128 -7q58 -10 84 -46q31 -41 31 -126zM512 489q0 69 -26 100q-22 28 -71 35q-25 4 -106 4h-167v-279h167q83 0 107 4q49 7 71 34q25 32 25 102z" />
    <glyph glyph-name="Q" unicode="Q" horiz-adv-x="684" 
d="M582 334q0 -122 -5 -164q-8 -65 -35 -103l65 -41l-21 -33l-71 45q-59 -46 -183 -46q-122 0 -179 44q-50 37 -64 119q-4 30 -5.5 61t-1.5 118t1.5 118t5.5 60q14 82 64 119q57 43 179 43t179 -43q50 -37 64 -119q4 -29 5.5 -60t1.5 -118zM394 115l21 33l88 -56
q22 28 28.5 73t6.5 168q0 125 -6 164q-11 71 -51 101q-47 35 -149 35t-149 -35q-40 -30 -51 -101q-6 -39 -6 -164t6 -164q11 -70 51 -101q47 -34 149 -34q96 0 142 30z" />
    <glyph glyph-name="R" unicode="R" horiz-adv-x="644" 
d="M513 490q0 68 -26 100q-23 27 -72 34q-25 4 -106 4h-167v-270h189q71 0 99 6q43 8 62 34q21 30 21 92zM530 0l-152 232q-28 43 -38.5 56t-21.5 19q-9 6 -22 8t-43 2h-111v-317h-44v667h215q93 0 125 -5q59 -10 86 -46q32 -41 32 -129q0 -94 -45 -133q-43 -36 -136 -37
l209 -317h-54z" />
    <glyph glyph-name="S" unicode="S" horiz-adv-x="640" 
d="M566 192q0 -121 -78 -166q-57 -34 -169 -34q-127 0 -181 35q-64 42 -64 143h42q1 -93 70 -120q40 -16 135 -16q108 0 152 32q49 36 49 123q0 65 -26 96q-23 25 -72 32q-20 3 -105 4q-91 1 -123 7q-59 9 -88 42q-34 39 -34 118q0 119 77 159q52 27 166 27q127 0 180 -35
q63 -41 63 -142h-41q-1 92 -70 120q-40 16 -134 16q-68 0 -103 -8q-47 -10 -69 -39q-26 -33 -26 -97q0 -63 29 -93q23 -24 73 -30q17 -2 101 -4q89 -1 123 -7q60 -11 89 -44q34 -40 34 -119z" />
    <glyph glyph-name="T" unicode="T" horiz-adv-x="536" 
d="M506 627h-216v-627h-44v627h-216v40h476v-40z" />
    <glyph glyph-name="U" unicode="U" horiz-adv-x="649" 
d="M557 336v-64q0 -75 -6 -115q-7 -50 -25 -78q-30 -47 -82 -68q-48 -19 -120 -19q-174 0 -217 112q-16 41 -16 159l1 73v331h44v-331l-1 -88q0 -64 4 -94t15 -50q39 -70 170 -70q128 0 167 70q15 27 18.5 65.5t3.5 166.5v331h44v-331z" />
    <glyph glyph-name="V" unicode="V" horiz-adv-x="561" 
d="M549 667l-247 -667h-46l-244 667h46l223 -612l223 612h45z" />
    <glyph glyph-name="W" unicode="W" horiz-adv-x="872" 
d="M822 667l-166 -667h-53l-167 609l-168 -609h-54l-164 667h45l148 -605l167 605h53l167 -605l149 605h43z" />
    <glyph glyph-name="X" unicode="X" horiz-adv-x="550" 
d="M513 0h-51l-189 302l-186 -302h-50l211 337l-208 330h50l186 -297l183 297h51l-209 -330z" />
    <glyph glyph-name="Y" unicode="Y" horiz-adv-x="521" 
d="M510 667l-229 -373v-294h-43v294l-227 373h49l202 -331l200 331h48z" />
    <glyph glyph-name="Z" unicode="Z" horiz-adv-x="598" 
d="M527 0h-456v41l406 586h-406v40h456v-41l-407 -586h407v-40z" />
    <glyph glyph-name="bracketleft" unicode="[" horiz-adv-x="292" 
d="M252 -191h-192v997h192v-38h-150v-920h150v-39z" />
    <glyph glyph-name="backslash" unicode="\" horiz-adv-x="520" 
d="M491 -84h-42l-420 839h42z" />
    <glyph glyph-name="bracketright" unicode="]" horiz-adv-x="292" 
d="M232 -191h-192v39h150v920h-150v38h192v-997z" />
    <glyph glyph-name="asciicircum" unicode="^" horiz-adv-x="562" 
d="M520 208l-38 -17l-201 431l-201 -431l-38 17l219 465h40z" />
    <glyph glyph-name="underscore" unicode="_" horiz-adv-x="500" 
d="M500 -194h-500v42h500v-42z" />
    <glyph glyph-name="grave" unicode="`" horiz-adv-x="402" 
d="M293 538h-51l-133 129h54z" />
    <glyph glyph-name="a" unicode="a" horiz-adv-x="531" 
d="M455 0h-40v75q-40 -82 -178 -82q-99 0 -141 38q-38 34 -38 104q0 93 56 125q40 23 128 23h170q-1 73 -4 89q-6 38 -35 54q-34 19 -110 19q-74 0 -108 -18q-44 -24 -44 -80h-40q0 85 70 118q46 21 130 21q124 0 162 -55q15 -23 19 -60q3 -20 3 -53v-40v-278zM412 244h-174
q-76 0 -105 -22q-32 -24 -32 -86q0 -60 34 -83q31 -21 99 -21q114 0 151 57q27 39 27 131v24z" />
    <glyph glyph-name="b" unicode="b" horiz-adv-x="552" 
d="M486 238q0 -85 -11 -129q-15 -58 -54 -85q-44 -31 -127 -31q-123 0 -169 79v-72h-41v697h43v-288q46 77 167 77q84 0 128 -31q39 -28 53 -87q11 -44 11 -130zM443 239q0 71 -7 105q-10 49 -39 73q-33 27 -98 27q-66 0 -102 -18q-38 -19 -55 -64q-16 -44 -16 -123
q0 -123 44 -167q38 -38 129 -38q99 0 128 67q9 21 12.5 51t3.5 87z" />
    <glyph glyph-name="c" unicode="c" horiz-adv-x="515" 
d="M457 131q0 -82 -65 -115q-44 -23 -123 -23q-87 0 -133 28q-42 26 -57 82q-13 46 -13 136q0 89 13 136q16 57 58 83q45 28 132 28q188 0 188 -139h-40q0 98 -147 98q-74 0 -110 -23q-33 -22 -43 -69q-8 -35 -8 -113t8 -113q11 -48 43 -69q36 -24 110 -24q71 0 105 19
q42 24 42 78h40z" />
    <glyph glyph-name="d" unicode="d" horiz-adv-x="552" 
d="M468 0h-41v72q-46 -79 -169 -79q-85 0 -128 31q-40 27 -54 85q-10 43 -10 130q0 84 11 128q14 59 53 87q44 32 128 32q67 0 109 -22q36 -18 58 -55v288h43v-697zM426 238q0 125 -44 168q-38 38 -129 38q-98 0 -127 -66q-12 -27 -15 -73q-2 -24 -2 -67q0 -71 6 -104
q10 -49 39 -73q33 -27 99 -27t102 18q38 19 55 63q16 44 16 123z" />
    <glyph glyph-name="e" unicode="e" horiz-adv-x="530" 
d="M464 235h-355q0 -76 8 -111q12 -46 44 -67q36 -23 108 -23q70 0 105 20q42 24 42 77h40q0 -138 -188 -138q-86 0 -131 28q-42 26 -58 82q-13 46 -13 135q0 88 12 134q16 58 57 85q45 29 130 29q87 0 132 -30q41 -27 55 -85q12 -46 12 -136zM422 274q0 99 -37 136
q-35 36 -120 36q-94 0 -129 -48q-27 -38 -27 -124h313z" />
    <glyph glyph-name="f" unicode="f" horiz-adv-x="294" 
d="M270 704v-40h-17q-36 0 -54 -3.5t-29 -13.5q-23 -20 -23 -80v-89h123v-39h-123v-439h-43v439h-80v39h80v99q0 86 50 112q29 15 97 15h19z" />
    <glyph glyph-name="g" unicode="g" horiz-adv-x="551" 
d="M467 43q0 -58 -4.5 -90t-16.5 -58q-42 -89 -184 -89q-184 0 -185 138h41q0 -98 141 -98q117 0 148 66q15 30 17 76v69v20q-46 -78 -167 -78q-85 0 -128 30q-39 28 -53 85q-10 43 -10 130q0 82 9 123q13 58 52 86q44 33 129 33q124 0 170 -78v70h41v-435zM425 243
q0 122 -44 165q-38 37 -129 37q-99 0 -127 -65q-9 -22 -12.5 -51t-3.5 -86q0 -71 6 -104q10 -48 39 -71q33 -27 98 -27q66 0 102 18q38 18 55 62q16 43 16 122z" />
    <glyph glyph-name="h" unicode="h" horiz-adv-x="536" 
d="M460 0h-43v247q0 88 -4 114q-6 36 -27 55q-30 29 -101 29q-115 0 -144 -84q-9 -25 -11.5 -52t-2.5 -97v-212h-43v697h43v-289q43 78 159 78q93 0 134 -41q30 -31 37 -84q3 -24 3 -106v-255z" />
    <glyph glyph-name="i" unicode="i" horiz-adv-x="211" 
d="M138 643q0 -33 -32 -33t-32 33q0 31 32 31t32 -31zM127 0h-43v478h43v-478z" />
    <glyph glyph-name="j" unicode="j" horiz-adv-x="211" 
d="M138 643q0 -33 -32 -33t-32 33q0 31 32 31t32 -31zM-39 -190v40h15q63 0 86 22q22 22 22 77v529h43v-525q0 -82 -38 -115q-34 -28 -109 -28h-19z" />
    <glyph glyph-name="k" unicode="k" horiz-adv-x="464" 
d="M445 0h-60l-258 242v-242h-43v697h43v-425l255 206h60l-274 -221z" />
    <glyph glyph-name="l" unicode="l" horiz-adv-x="223" 
d="M187 34v-38h-16q-60 0 -76 38q-11 24 -11 92v571h43v-564q0 -67 9 -83q10 -16 44 -16h7z" />
    <glyph glyph-name="m" unicode="m" horiz-adv-x="807" 
d="M731 0h-43v291q0 52 -4 77t-15 41q-25 35 -98 35q-103 0 -129 -83q-8 -25 -10.5 -53t-2.5 -98v-210h-43v291q0 51 -4.5 76.5t-15.5 41.5q-25 36 -97 36q-104 0 -130 -86q-8 -25 -10 -50.5t-2 -98.5v-210h-43v478h41v-68q22 42 68 61q35 15 80 15q119 0 145 -87
q23 49 73 71q37 16 83 16q104 0 138 -63q19 -35 19 -104v-30v-289z" />
    <glyph glyph-name="n" unicode="n" horiz-adv-x="536" 
d="M460 0h-43v247q0 88 -4 114q-6 36 -27 55q-30 29 -101 29q-115 0 -144 -84q-9 -25 -11.5 -52t-2.5 -97v-212h-43v478h41v-72q43 80 161 80q93 0 134 -41q30 -30 37 -83q3 -24 3 -107v-255z" />
    <glyph glyph-name="o" unicode="o" horiz-adv-x="542" 
d="M476 239q0 -85 -11 -127q-14 -59 -56 -87q-47 -32 -138 -32t-138 32q-42 28 -57 87q-10 42 -10 127t10 128q15 58 57 87q47 32 138 32t138 -32q42 -29 56 -87q11 -43 11 -128zM433 239q0 78 -8 113q-11 48 -44 69q-36 24 -110 24t-110 -24q-33 -21 -44 -69
q-8 -35 -8 -113t8 -113q11 -47 44 -69q36 -23 110 -23t110 23q33 22 44 69q8 35 8 113z" />
    <glyph glyph-name="p" unicode="p" horiz-adv-x="552" 
d="M486 239q0 -86 -11 -130q-14 -58 -53 -85q-44 -31 -128 -31q-67 0 -109 22q-36 18 -58 55v-261h-43v669h41v-72q46 80 169 80q84 0 128 -31q39 -28 53 -86q11 -44 11 -130zM443 240q0 71 -6 104q-10 49 -39 73q-33 27 -99 27t-102 -18q-38 -19 -55 -63q-16 -44 -16 -123
q0 -125 44 -168q38 -38 129 -38q99 0 128 67q9 23 12.5 53t3.5 86z" />
    <glyph glyph-name="q" unicode="q" horiz-adv-x="552" 
d="M468 -191h-43v261q-46 -77 -168 -77q-84 0 -128 31q-39 28 -53 86q-10 43 -10 130q0 85 11 129q14 58 53 86q43 31 127 31q123 0 169 -78v70h42v-669zM426 239q0 124 -44 167q-39 38 -130 38q-99 0 -127 -67q-9 -22 -12.5 -51.5t-3.5 -86.5q0 -72 6 -105q10 -49 38 -73
q33 -27 99 -27t102 18q39 19 56 64q16 43 16 123z" />
    <glyph glyph-name="r" unicode="r" horiz-adv-x="433" 
d="M421 349h-40q0 57 -34 79q-26 17 -78 17q-104 0 -130 -88q-8 -26 -10 -51.5t-2 -98.5v-207h-43v478h41v-70q42 78 148 78q148 0 148 -137z" />
    <glyph glyph-name="s" unicode="s" horiz-adv-x="501" 
d="M441 135q0 -81 -55 -115q-47 -28 -141 -27q-107 1 -148 35q-37 31 -37 103h40q0 -60 35 -80q31 -18 109 -18q88 0 123 26q31 23 31 74q0 49 -22 66q-20 15 -76 20l-119 7q-58 6 -83 29q-31 27 -31 93q0 82 54 113q45 26 141 25q107 0 147 -41q31 -33 31 -96h-41
q0 55 -33 77q-31 20 -103 20q-89 0 -122 -23q-30 -21 -31 -67q-1 -50 16.5 -66.5t77.5 -22.5l119 -8q60 -6 85 -29q33 -28 33 -95z" />
    <glyph glyph-name="t" unicode="t" horiz-adv-x="284" 
d="M274 36v-40h-9q-87 0 -124 36q-33 33 -33 101v306h-80v39h80v189h43v-189h123v-39h-123v-306q0 -54 25.5 -75.5t90.5 -21.5h7z" />
    <glyph glyph-name="u" unicode="u" horiz-adv-x="536" 
d="M452 0h-41v72q-44 -80 -161 -80q-93 0 -134 41q-30 30 -37 83q-3 24 -3 107v255h43v-247q0 -88 4 -114q6 -36 27 -55q30 -29 101 -29q115 0 144 84q9 25 11.5 52t2.5 97v212h43v-478z" />
    <glyph glyph-name="v" unicode="v" horiz-adv-x="457" 
d="M436 478l-183 -478h-48l-184 478h45l164 -429l161 429h45z" />
    <glyph glyph-name="w" unicode="w" horiz-adv-x="693" 
d="M664 478l-142 -478h-50l-125 425l-126 -425h-50l-142 478h45l123 -423l126 423h48l127 -423l122 423h44z" />
    <glyph glyph-name="x" unicode="x" horiz-adv-x="457" 
d="M428 0h-52l-148 208l-148 -208h-51l174 242l-170 236h52l144 -203l146 203h50l-171 -235z" />
    <glyph glyph-name="y" unicode="y" horiz-adv-x="536" 
d="M410 68q-45 -76 -160 -76q-93 0 -134 41q-30 30 -37 83q-3 24 -3 107v255h43v-247q0 -88 4 -114q6 -36 27 -55q30 -29 101 -29q115 0 144 84q9 25 11.5 52t2.5 97v212h43v-435q0 -58 -4.5 -90t-16.5 -58q-23 -48 -78 -71q-42 -18 -97 -18q-93 0 -136 37q-40 34 -40 101
h41q0 -54 36 -77q32 -21 96 -21q51 0 86 16q37 17 53 50q11 24 14.5 53t3.5 103z" />
    <glyph glyph-name="z" unicode="z" horiz-adv-x="400" 
d="M390 0h-366v38l312 401h-312v39h366v-36l-311 -401h311v-41z" />
    <glyph glyph-name="braceleft" unicode="{" horiz-adv-x="363" 
d="M323 -191q-39 0 -65 8.5t-45 27.5q-29 29 -39 68q-7 31 -7 88v187q0 10 -6 16l-61 61q-19 19 -19 42q0 25 28 53l54 54q4 4 4 9v211q0 64 9.5 96.5t36.5 59.5q19 19 45 27.5t65 8.5v-38q-32 0 -50 -6t-34 -22q-17 -17 -24 -45t-7 -79v-205q0 -32 -21 -53q-48 -47 -57 -56
q-7 -7 -7 -14q0 -8 7 -15l56 -54q22 -22 22 -57v-182q0 -51 7.5 -79.5t24.5 -45.5q16 -15 35 -21.5t48 -6.5v-38z" />
    <glyph glyph-name="bar" unicode="|" horiz-adv-x="280" 
d="M161 -191h-42v858h42v-858z" />
    <glyph glyph-name="braceright" unicode="}" horiz-adv-x="363" 
d="M282 307q0 -23 -19 -42l-61 -61q-6 -6 -6 -16v-187q0 -64 -9.5 -96.5t-36.5 -59.5q-19 -19 -45 -27.5t-65 -8.5v38q29 0 48 6.5t35 21.5q17 17 24.5 45.5t7.5 79.5v182q0 35 22 57l56 54q7 7 7 15q0 7 -7 14q-9 9 -57 56q-21 21 -21 53v205q0 51 -7 79t-24 45
q-16 16 -34 22t-50 6v38q39 0 65 -8.5t45 -27.5q29 -29 39 -68q7 -31 7 -88v-211q0 -5 4 -9l54 -54q28 -28 28 -53z" />
    <glyph glyph-name="asciitilde" unicode="~" horiz-adv-x="562" 
d="M527 258l-79 -50q-34 -22 -79 -22q-42 0 -74 20q-14 9 -54 32q-24 14 -50 14q-27 0 -53 -16l-79 -48l-24 33l79 49q35 22 80 22q41 0 73 -19l55 -33q29 -14 52 -14q25 0 50 16l81 50z" />
    <glyph glyph-name="Adieresis" unicode="&#xc4;" horiz-adv-x="607" 
d="M581 0h-47l-78 204h-308l-77 -204h-45l254 667h46zM441 242l-138 373l-140 -373h278zM444 828q0 -33 -33 -33q-32 0 -32 33q0 17 7.5 24t24.5 7q33 0 33 -31zM230 828q0 -33 -33 -33q-32 0 -32 33q0 17 7.5 24t24.5 7q33 0 33 -31z" />
    <glyph glyph-name="Aring" unicode="&#xc5;" horiz-adv-x="607" 
d="M582 0h-47l-78 204h-308l-77 -204h-45l237 622q-41 8 -58 37q-14 24 -14 71q0 67 28 90q24 20 83 20q65 0 91 -29q22 -25 22 -82q0 -56 -18 -80q-17 -22 -54 -28zM442 242l-138 373l-140 -373h278zM305 653q48 0 62 19q11 15 11 58q0 47 -17 62q-16 14 -58 14
q-48 0 -62 -19q-11 -15 -11 -58q0 -47 17 -62q16 -14 58 -14z" />
    <glyph glyph-name="Ccedilla" unicode="&#xc7;" horiz-adv-x="635" 
d="M562 170q0 -104 -60 -143q-51 -34 -165 -34v-40q65 0 65 -67q0 -40 -19 -57q-19 -16 -57 -16q-41 0 -58.5 14t-17.5 47h33q0 -19 9 -25.5t34 -6.5q24 0 32.5 9t8.5 33q0 31 -21 38q-8 3 -44 4v67q-104 5 -154 48q-44 37 -58 116q-8 49 -8 176q0 133 9 184q15 80 67 116
q57 41 179 41q129 0 180 -46q45 -40 45 -131h-41q-1 52 -17 81q-18 29 -60 42q-41 13 -116 13q-99 0 -144 -34q-40 -30 -51 -100q-7 -42 -7 -166t6 -165q11 -70 52 -100q45 -34 144 -34q117 0 158 34q34 30 35 102h41z" />
    <glyph glyph-name="Eacute" unicode="&#xc9;" horiz-adv-x="583" 
d="M499 0h-401v667h401v-40h-356v-264h346v-40h-346v-283h356v-40zM386 860l-133 -129h-51l130 129h54z" />
    <glyph glyph-name="Ntilde" unicode="&#xd1;" horiz-adv-x="651" 
d="M553 0h-56l-356 606v-606h-43v667h54l358 -605v605h43v-667zM510 826l-53 -29q-32 -18 -67 -18q-30 0 -55 14l-39 22q-19 9 -35 9q-18 0 -37 -11l-65 -36l-20 31l65 37q33 16 61 16t55 -15q36 -20 39 -21q19 -9 36 -9q18 0 36 10l61 32z" />
    <glyph glyph-name="Odieresis" unicode="&#xd6;" horiz-adv-x="665" 
d="M582 334q0 -87 -1.5 -118t-5.5 -61q-14 -82 -64 -119q-57 -44 -179 -44t-179 44q-50 37 -64 119q-4 30 -5.5 61t-1.5 118t1.5 118t5.5 60q14 82 64 119q57 43 179 43t179 -43q50 -37 64 -119q4 -29 5.5 -60t1.5 -118zM538 333q0 125 -6 164q-11 71 -51 101
q-47 35 -149 35t-149 -35q-40 -30 -51 -101q-6 -39 -6 -164t6 -164q11 -70 51 -101q47 -34 149 -34t149 34q40 31 51 101q6 39 6 164zM472 828q0 -33 -33 -33q-32 0 -32 33q0 17 7.5 24t24.5 7q33 0 33 -31zM258 828q0 -33 -33 -33q-32 0 -32 33q0 17 7.5 24t24.5 7
q33 0 33 -31z" />
    <glyph glyph-name="Udieresis" unicode="&#xdc;" horiz-adv-x="649" 
d="M557 336v-64q0 -75 -6 -115q-7 -50 -25 -78q-30 -47 -82 -68q-48 -19 -120 -19q-174 0 -217 112q-16 41 -16 159l1 73v331h44v-331l-1 -88q0 -64 4 -94t15 -50q39 -70 170 -70q128 0 167 70q15 27 18.5 65.5t3.5 166.5v331h44v-331zM467 828q0 -33 -33 -33q-32 0 -32 33
q0 17 7.5 24t24.5 7q33 0 33 -31zM253 828q0 -33 -33 -33q-32 0 -32 33q0 17 7.5 24t24.5 7q33 0 33 -31z" />
    <glyph glyph-name="aacute" unicode="&#xe1;" horiz-adv-x="531" 
d="M455 0h-40v75q-40 -82 -178 -82q-99 0 -141 38q-38 34 -38 104q0 93 56 125q40 23 128 23h170q-1 73 -4 89q-6 38 -35 54q-34 19 -110 19q-74 0 -108 -18q-44 -24 -44 -80h-40q0 85 70 118q46 21 130 21q124 0 162 -55q15 -23 19 -60q3 -20 3 -53v-40v-278zM412 244h-174
q-76 0 -105 -22q-32 -24 -32 -86q0 -60 34 -83q31 -21 99 -21q114 0 151 57q27 39 27 131v24zM363 667l-133 -129h-51l130 129h54z" />
    <glyph glyph-name="agrave" unicode="&#xe0;" horiz-adv-x="531" 
d="M455 0h-40v75q-40 -82 -178 -82q-99 0 -141 38q-38 34 -38 104q0 93 56 125q40 23 128 23h170q-1 73 -4 89q-6 38 -35 54q-34 19 -110 19q-74 0 -108 -18q-44 -24 -44 -80h-40q0 85 70 118q46 21 130 21q124 0 162 -55q15 -23 19 -60q3 -20 3 -53v-40v-278zM412 244h-174
q-76 0 -105 -22q-32 -24 -32 -86q0 -60 34 -83q31 -21 99 -21q114 0 151 57q27 39 27 131v24zM353 538h-51l-133 129h54z" />
    <glyph glyph-name="acircumflex" unicode="&#xe2;" horiz-adv-x="531" 
d="M455 0h-40v75q-40 -82 -178 -82q-99 0 -141 38q-38 34 -38 104q0 93 56 125q40 23 128 23h170q-1 73 -4 89q-6 38 -35 54q-34 19 -110 19q-74 0 -108 -18q-44 -24 -44 -80h-40q0 85 70 118q46 21 130 21q124 0 162 -55q15 -23 19 -60q3 -20 3 -53v-40v-278zM412 244h-174
q-76 0 -105 -22q-32 -24 -32 -86q0 -60 34 -83q31 -21 99 -21q114 0 151 57q27 39 27 131v24zM418 538h-51l-101 100l-102 -100h-52l133 129h41z" />
    <glyph glyph-name="adieresis" unicode="&#xe4;" horiz-adv-x="531" 
d="M455 0h-40v75q-40 -82 -178 -82q-99 0 -141 38q-38 34 -38 104q0 93 56 125q40 23 128 23h170q-1 73 -4 89q-6 38 -35 54q-34 19 -110 19q-74 0 -108 -18q-44 -24 -44 -80h-40q0 85 70 118q46 21 130 21q124 0 162 -55q15 -23 19 -60q3 -20 3 -53v-40v-278zM412 244h-174
q-76 0 -105 -22q-32 -24 -32 -86q0 -60 34 -83q31 -21 99 -21q114 0 151 57q27 39 27 131v24zM405 636q0 -33 -33 -33q-32 0 -32 33q0 17 7.5 24t24.5 7q33 0 33 -31zM191 636q0 -33 -33 -33q-32 0 -32 33q0 17 7.5 24t24.5 7q33 0 33 -31z" />
    <glyph glyph-name="atilde" unicode="&#xe3;" horiz-adv-x="531" 
d="M455 0h-40v75q-40 -82 -178 -82q-99 0 -141 38q-38 34 -38 104q0 93 56 125q40 23 128 23h170q-1 73 -4 89q-6 38 -35 54q-34 19 -110 19q-74 0 -108 -18q-44 -24 -44 -80h-40q0 85 70 118q46 21 130 21q124 0 162 -55q15 -23 19 -60q3 -20 3 -53v-40v-278zM412 244h-174
q-76 0 -105 -22q-32 -24 -32 -86q0 -60 34 -83q31 -21 99 -21q114 0 151 57q27 39 27 131v24zM449 635l-53 -29q-32 -18 -67 -18q-30 0 -55 14l-39 22q-19 9 -35 9q-18 0 -37 -11l-65 -36l-20 31l65 37q33 16 61 16t55 -15q36 -20 39 -21q19 -9 36 -9q18 0 36 10l61 32z" />
    <glyph glyph-name="aring" unicode="&#xe5;" horiz-adv-x="531" 
d="M455 0h-40v75q-40 -82 -178 -82q-99 0 -141 38q-38 34 -38 104q0 93 56 125q40 23 128 23h170q-1 73 -4 89q-6 38 -35 54q-34 19 -110 19q-74 0 -108 -18q-44 -24 -44 -80h-40q0 109 115 132q-16 8 -22.5 26t-6.5 53q0 64 30 87q25 20 81 20q65 0 90 -26q23 -25 23 -81
q0 -63 -30 -79q69 -15 91 -66q13 -30 13 -95v-40v-278zM343 556q0 48 -17 63q-16 15 -58 15q-48 0 -62 -19q-12 -16 -12 -59q0 -47 17 -61q15 -12 58 -12q48 0 62 17q12 14 12 56zM412 244h-174q-76 0 -105 -22q-32 -24 -32 -86q0 -60 34 -83q31 -21 99 -21q114 0 151 57
q27 39 27 131v24z" />
    <glyph glyph-name="ccedilla" unicode="&#xe7;" horiz-adv-x="515" 
d="M457 131q0 -132 -173 -138v-40q65 0 65 -67q0 -40 -19 -57q-19 -16 -57 -16q-41 0 -58.5 14t-17.5 47h33q0 -19 9 -25.5t34 -6.5q24 0 32.5 9t8.5 34q0 31 -23 38q-7 2 -42 3v67q-78 3 -119 32q-38 27 -53 82q-11 45 -11 132q0 89 13 136q16 57 58 83q45 28 132 28
q188 0 188 -139h-40q0 98 -147 98q-74 0 -110 -23q-33 -22 -43 -69q-8 -35 -8 -113t8 -113q11 -48 43 -70q36 -24 110 -24q70 0 105 20q42 24 42 78h40z" />
    <glyph glyph-name="eacute" unicode="&#xe9;" horiz-adv-x="530" 
d="M464 235h-355q0 -76 8 -111q12 -46 44 -67q36 -23 108 -23q70 0 105 20q42 24 42 77h40q0 -138 -188 -138q-86 0 -131 28q-42 26 -58 82q-13 46 -13 135q0 88 12 134q16 58 57 85q45 29 130 29q87 0 132 -30q41 -27 55 -85q12 -46 12 -136zM422 274q0 99 -37 136
q-35 36 -120 36q-94 0 -129 -48q-27 -38 -27 -124h313zM362 667l-133 -129h-51l130 129h54z" />
    <glyph glyph-name="egrave" unicode="&#xe8;" horiz-adv-x="530" 
d="M464 235h-355q0 -76 8 -111q12 -46 44 -67q36 -23 108 -23q70 0 105 20q42 24 42 77h40q0 -138 -188 -138q-86 0 -131 28q-42 26 -58 82q-13 46 -13 135q0 88 12 134q16 58 57 85q45 29 130 29q87 0 132 -30q41 -27 55 -85q12 -46 12 -136zM422 274q0 99 -37 136
q-35 36 -120 36q-94 0 -129 -48q-27 -38 -27 -124h313zM352 538h-51l-133 129h54z" />
    <glyph glyph-name="ecircumflex" unicode="&#xea;" horiz-adv-x="530" 
d="M464 235h-355q0 -76 8 -111q12 -46 44 -67q36 -23 108 -23q70 0 105 20q42 24 42 77h40q0 -138 -188 -138q-86 0 -131 28q-42 26 -58 82q-13 46 -13 135q0 88 12 134q16 58 57 85q45 29 130 29q87 0 132 -30q41 -27 55 -85q12 -46 12 -136zM422 274q0 99 -37 136
q-35 36 -120 36q-94 0 -129 -48q-27 -38 -27 -124h313zM416 538h-51l-101 100l-102 -100h-52l133 129h41z" />
    <glyph glyph-name="edieresis" unicode="&#xeb;" horiz-adv-x="530" 
d="M464 235h-355q0 -76 8 -111q12 -46 44 -67q36 -23 108 -23q70 0 105 20q42 24 42 77h40q0 -138 -188 -138q-86 0 -131 28q-42 26 -58 82q-13 46 -13 135q0 88 12 134q16 58 57 85q45 29 130 29q87 0 132 -30q41 -27 55 -85q12 -46 12 -136zM422 274q0 99 -37 136
q-35 36 -120 36q-94 0 -129 -48q-27 -38 -27 -124h313zM405 636q0 -33 -33 -33q-32 0 -32 33q0 17 7.5 24t24.5 7q33 0 33 -31zM191 636q0 -33 -33 -33q-32 0 -32 33q0 17 7.5 24t24.5 7q33 0 33 -31z" />
    <glyph glyph-name="iacute" unicode="&#xed;" horiz-adv-x="211" 
d="M127 0h-43v478h43v-478zM197 667l-133 -129h-51l130 129h54z" />
    <glyph glyph-name="igrave" unicode="&#xec;" horiz-adv-x="211" 
d="M127 0h-43v478h43v-478zM198 538h-51l-133 129h54z" />
    <glyph glyph-name="icircumflex" unicode="&#xee;" horiz-adv-x="211" 
d="M127 0h-43v478h43v-478zM258 538h-51l-101 100l-102 -100h-52l133 129h41z" />
    <glyph glyph-name="idieresis" unicode="&#xef;" horiz-adv-x="211" 
d="M127 0h-43v478h43v-478zM245 636q0 -33 -33 -33q-32 0 -32 33q0 17 7.5 24t24.5 7q33 0 33 -31zM31 636q0 -33 -33 -33q-32 0 -32 33q0 17 7.5 24t24.5 7q33 0 33 -31z" />
    <glyph glyph-name="ntilde" unicode="&#xf1;" horiz-adv-x="536" 
d="M461 0h-43v247q0 88 -4 114q-6 36 -27 55q-30 29 -101 29q-115 0 -144 -84q-9 -25 -11.5 -52t-2.5 -97v-212h-43v478h41v-72q43 80 161 80q93 0 134 -41q30 -30 37 -83q3 -24 3 -107v-255zM455 635l-53 -29q-32 -18 -67 -18q-30 0 -55 14l-39 22q-19 9 -35 9
q-18 0 -37 -11l-65 -36l-20 31l65 37q33 16 61 16t55 -15q36 -20 39 -21q19 -9 36 -9q18 0 36 10l61 32z" />
    <glyph glyph-name="oacute" unicode="&#xf3;" horiz-adv-x="542" 
d="M476 239q0 -85 -11 -127q-14 -59 -56 -87q-47 -32 -138 -32t-138 32q-42 28 -57 87q-10 42 -10 127t10 128q15 58 57 87q47 32 138 32t138 -32q42 -29 56 -87q11 -43 11 -128zM433 239q0 78 -8 113q-11 48 -44 69q-36 24 -110 24t-110 -24q-33 -21 -44 -69
q-8 -35 -8 -113t8 -113q11 -47 44 -69q36 -23 110 -23t110 23q33 22 44 69q8 35 8 113zM358 667l-133 -129h-51l130 129h54z" />
    <glyph glyph-name="ograve" unicode="&#xf2;" horiz-adv-x="542" 
d="M476 239q0 -85 -11 -127q-14 -59 -56 -87q-47 -32 -138 -32t-138 32q-42 28 -57 87q-10 42 -10 127t10 128q15 58 57 87q47 32 138 32t138 -32q42 -29 56 -87q11 -43 11 -128zM433 239q0 78 -8 113q-11 48 -44 69q-36 24 -110 24t-110 -24q-33 -21 -44 -69
q-8 -35 -8 -113t8 -113q11 -47 44 -69q36 -23 110 -23t110 23q33 22 44 69q8 35 8 113zM366 538h-51l-133 129h54z" />
    <glyph glyph-name="ocircumflex" unicode="&#xf4;" horiz-adv-x="542" 
d="M476 239q0 -85 -11 -127q-14 -59 -56 -87q-47 -32 -138 -32t-138 32q-42 28 -57 87q-10 42 -10 127t10 128q15 58 57 87q47 32 138 32t138 -32q42 -29 56 -87q11 -43 11 -128zM433 239q0 78 -8 113q-11 48 -44 69q-36 24 -110 24t-110 -24q-33 -21 -44 -69
q-8 -35 -8 -113t8 -113q11 -47 44 -69q36 -23 110 -23t110 23q33 22 44 69q8 35 8 113zM423 538h-51l-101 100l-102 -100h-52l133 129h41z" />
    <glyph glyph-name="odieresis" unicode="&#xf6;" horiz-adv-x="542" 
d="M476 239q0 -85 -11 -127q-14 -59 -56 -87q-47 -32 -138 -32t-138 32q-42 28 -57 87q-10 42 -10 127t10 128q15 58 57 87q47 32 138 32t138 -32q42 -29 56 -87q11 -43 11 -128zM433 239q0 78 -8 113q-11 48 -44 69q-36 24 -110 24t-110 -24q-33 -21 -44 -69
q-8 -35 -8 -113t8 -113q11 -47 44 -69q36 -23 110 -23t110 23q33 22 44 69q8 35 8 113zM410 636q0 -33 -33 -33q-32 0 -32 33q0 17 7.5 24t24.5 7q33 0 33 -31zM196 636q0 -33 -33 -33q-32 0 -32 33q0 17 7.5 24t24.5 7q33 0 33 -31z" />
    <glyph glyph-name="otilde" unicode="&#xf5;" horiz-adv-x="542" 
d="M476 239q0 -85 -11 -127q-14 -59 -56 -87q-47 -32 -138 -32t-138 32q-42 28 -57 87q-10 42 -10 127t10 128q15 58 57 87q47 32 138 32t138 -32q42 -29 56 -87q11 -43 11 -128zM433 239q0 78 -8 113q-11 48 -44 69q-36 24 -110 24t-110 -24q-33 -21 -44 -69
q-8 -35 -8 -113t8 -113q11 -47 44 -69q36 -23 110 -23t110 23q33 22 44 69q8 35 8 113zM456 635l-53 -29q-32 -18 -67 -18q-30 0 -55 14l-39 22q-19 9 -35 9q-18 0 -37 -11l-65 -36l-20 31l65 37q33 16 61 16t55 -15q36 -20 39 -21q19 -9 36 -9q18 0 36 10l61 32z" />
    <glyph glyph-name="uacute" unicode="&#xfa;" horiz-adv-x="536" 
d="M452 0h-41v72q-44 -80 -161 -80q-93 0 -134 41q-30 30 -37 83q-3 24 -3 107v255h43v-247q0 -88 4 -114q6 -36 27 -55q30 -29 101 -29q115 0 144 84q9 25 11.5 52t2.5 97v212h43v-478zM365 667l-133 -129h-51l130 129h54z" />
    <glyph glyph-name="ugrave" unicode="&#xf9;" horiz-adv-x="536" 
d="M452 0h-41v72q-44 -80 -161 -80q-93 0 -134 41q-30 30 -37 83q-3 24 -3 107v255h43v-247q0 -88 4 -114q6 -36 27 -55q30 -29 101 -29q115 0 144 84q9 25 11.5 52t2.5 97v212h43v-478zM359 538h-51l-133 129h54z" />
    <glyph glyph-name="ucircumflex" unicode="&#xfb;" horiz-adv-x="536" 
d="M452 0h-41v72q-44 -80 -161 -80q-93 0 -134 41q-30 30 -37 83q-3 24 -3 107v255h43v-247q0 -88 4 -114q6 -36 27 -55q30 -29 101 -29q115 0 144 84q9 25 11.5 52t2.5 97v212h43v-478zM421 538h-51l-101 100l-102 -100h-52l133 129h41z" />
    <glyph glyph-name="udieresis" unicode="&#xfc;" horiz-adv-x="536" 
d="M452 0h-41v72q-44 -80 -161 -80q-93 0 -134 41q-30 30 -37 83q-3 24 -3 107v255h43v-247q0 -88 4 -114q6 -36 27 -55q30 -29 101 -29q115 0 144 84q9 25 11.5 52t2.5 97v212h43v-478zM407 636q0 -33 -33 -33q-32 0 -32 33q0 17 7.5 24t24.5 7q33 0 33 -31zM193 636
q0 -33 -33 -33q-32 0 -32 33q0 17 7.5 24t24.5 7q33 0 33 -31z" />
    <glyph glyph-name="dagger" unicode="&#x2020;" horiz-adv-x="563" 
d="M453 439h-151v-530h-41v530h-151v39h151v189h41v-189h151v-39z" />
    <glyph glyph-name="degree" unicode="&#xb0;" horiz-adv-x="564" 
d="M428 529q0 -87 -37 -121q-34 -31 -110 -31q-86 0 -118 42q-27 35 -27 113q0 82 39 114q34 28 107 28q84 0 117 -38q29 -33 29 -107zM387 525q0 65 -25 89q-23 22 -80 22q-65 0 -87 -29q-19 -24 -19 -82q0 -65 25 -88q23 -22 80 -22q65 0 87 29q19 24 19 81z" />
    <glyph glyph-name="cent" unicode="&#xa2;" horiz-adv-x="515" 
d="M457 131q0 -133 -168 -138v-88h-41v88q-119 4 -157 81q-25 50 -25 166q0 82 11 126q14 57 51 85q42 32 120 34v90h41v-90q168 -4 168 -138h-41q0 93 -127 97v-410q127 4 127 97h41zM248 34v410q-97 -4 -124 -69q-9 -21 -12 -49.5t-3 -85.5q0 -71 6 -103q9 -48 37 -72
q32 -28 96 -31z" />
    <glyph glyph-name="sterling" unicode="&#xa3;" horiz-adv-x="562" 
d="M513 0h-449v40h56v275h-56v39h56v107v29q0 51 7 78q9 35 31 57q51 49 156 49q52 0 83.5 -5.5t53.5 -19.5q53 -32 53 -116h-42q0 65 -46 87q-29 14 -92 14q-52 0 -84 -9.5t-52 -30.5q-14 -14 -19.5 -36.5t-5.5 -62.5v-31v-110h295v-39h-295v-275h350v-40z" />
    <glyph glyph-name="section" unicode="&#xa7;" horiz-adv-x="562" 
d="M468 44q0 -89 -53 -123q-41 -26 -127 -26q-111 0 -154 35q-40 32 -40 106h41q0 -60 38 -81q34 -19 115 -19q77 0 106 24q31 25 31 84q0 57 -27 79t-98 23q-74 1 -88 3q-45 5 -71 23q-47 33 -47 113q0 52 20 81q17 25 51 36q-71 23 -71 123q0 89 53 123q41 26 127 26
q111 0 154 -35q40 -33 40 -106h-42q0 59 -38 81q-34 19 -114 19q-77 0 -106 -24q-31 -25 -31 -84q0 -79 59 -96q21 -5 59 -6l49 -1q47 -2 73 -7.5t44 -17.5q47 -32 47 -113q0 -49 -17 -77t-54 -40q71 -23 71 -123zM425 286q0 44 -16 65q-14 18 -43 25t-95 7q-78 0 -105 -20
q-29 -22 -29 -81q0 -70 51 -88q16 -5 34.5 -6.5t68.5 -1.5q43 0 64.5 3.5t35.5 12.5q34 22 34 84z" />
    <glyph glyph-name="bullet" unicode="&#x2022;" horiz-adv-x="500" 
d="M335 334q0 -47 -23 -66q-20 -17 -62 -17q-48 0 -68 22q-17 20 -17 61q0 47 23 67q20 17 62 17q48 0 68 -23q17 -20 17 -61z" />
    <glyph glyph-name="paragraph" unicode="&#xb6;" horiz-adv-x="559" 
d="M445 0h-42v627h-71v-627h-42v311q-92 0 -128 7q-59 10 -86 45q-32 41 -32 125q0 85 31 126q26 36 84 46q36 7 128 7h158v-667zM290 351v276q-82 0 -106 -4q-49 -7 -71 -34q-26 -31 -26 -100q0 -95 50 -121q18 -10 43 -13.5t71 -3.5h39z" />
    <glyph glyph-name="germandbls" unicode="&#xdf;" horiz-adv-x="562" 
d="M484 194q0 -113 -58 -158q-48 -36 -148 -36h-79v39h81q93 0 128 36q33 34 33 115q0 101 -45 135q-36 28 -124 28h-73v39h73q97 0 132 34q31 31 31 104q0 53 -14 81t-46.5 40.5t-94.5 12.5q-88 0 -120.5 -36.5t-32.5 -134.5v-493h-43v490q0 73 13 114q16 50 57 74
q44 26 126 26q114 0 158 -43q40 -40 40 -128q0 -68 -21 -106q-22 -40 -72 -55q56 -14 80 -64q19 -42 19 -114z" />
    <glyph glyph-name="registered" unicode="&#xae;" horiz-adv-x="530" 
d="M484 448q0 -89 -17 -135q-19 -50 -67 -71q-46 -21 -135 -21q-90 0 -136 21q-47 21 -66 71q-17 46 -17 136q0 92 17 137q19 49 66 69q45 19 136 19t136 -19q47 -20 66 -70q17 -45 17 -137zM453 450q0 81 -13 119q-15 43 -56 60q-38 16 -119 16q-82 0 -120 -16
q-39 -17 -53.5 -56t-14.5 -126q0 -81 13 -119q16 -43 56 -60q38 -17 119 -17t120 17q38 17 53 57t15 125zM369 306h-31v81q0 31 -11.5 42t-42.5 11h-22h-61v-134h-32v291h96q39 0 53 -2t25 -9q26 -16 26 -69q0 -24 -6.5 -38.5t-21.5 -23.5q15 -8 21.5 -23.5t6.5 -42.5v-83z
M338 518q0 30 -10.5 40t-42.5 10h-23h-61v-99h64h22q29 0 39 9q12 11 12 40z" />
    <glyph glyph-name="copyright" unicode="&#xa9;" horiz-adv-x="821" 
d="M739 334q0 -135 -26 -204q-29 -75 -100 -106q-69 -31 -203 -31t-203 31q-70 32 -99 108q-26 69 -26 204q0 137 26 205q28 74 99 104q68 29 203 29q136 0 204 -29q71 -30 99 -105q26 -68 26 -206zM699 337q0 124 -21 183q-24 65 -86 91q-59 25 -182 25q-124 0 -183 -26
q-62 -26 -85 -93q-20 -59 -20 -184q0 -121 22 -181q24 -66 85 -94q61 -27 181 -27q122 0 183 28t85 95q21 60 21 183zM601 242q0 -82 -65 -117q-47 -25 -124 -25q-85 0 -130 26q-43 24 -59 78q-14 45 -14 132t14 132q16 54 59 78q45 26 130 26q89 0 138 -34q51 -36 51 -108
h-39q0 65 -51 89q-34 15 -98 15q-72 0 -108 -22q-34 -20 -46 -66q-9 -35 -9 -110t9 -110q12 -46 46 -66q36 -22 108 -22q74 0 109 21q40 25 40 83h39z" />
    <glyph glyph-name="trademark" unicode="&#x2122;" horiz-adv-x="848" 
d="M758 233h-36v379l-138 -379h-46l-136 379v-379h-37v434h54l142 -393l144 393h53v-434zM324 633h-134v-400h-39v400h-135v34h308v-34z" />
    <glyph glyph-name="acute" unicode="&#xb4;" horiz-adv-x="402" 
d="M293 667l-133 -129h-51l130 129h54z" />
    <glyph glyph-name="dieresis" unicode="&#xa8;" horiz-adv-x="416" 
d="M348 636q0 -33 -33 -33q-32 0 -32 33q0 17 7.5 24t24.5 7q33 0 33 -31zM134 636q0 -33 -33 -33q-32 0 -32 33q0 17 7.5 24t24.5 7q33 0 33 -31z" />
    <glyph glyph-name="notequal" unicode="&#x2260;" horiz-adv-x="562" 
d="M524 124h-333l-126 -124l-26 28l97 96h-98v40h139l156 153h-295v40h336l124 121l26 -28l-95 -93h95v-40h-136l-155 -153h291v-40z" />
    <glyph glyph-name="AE" unicode="&#xc6;" horiz-adv-x="901" 
d="M817 0h-365v206h-266l-135 -206h-49l440 667h375v-40h-322v-264h312v-40h-312v-283h322v-40zM452 245v368l-241 -368h241z" />
    <glyph glyph-name="Oslash" unicode="&#xd8;" horiz-adv-x="664" 
d="M582 330q-2 -122 -10 -171q-8 -58 -31 -91q-30 -43 -86 -61q-50 -17 -127 -16q-18 0 -54 4l-30 -136l-39 8l30 134q-86 16 -121 75q-19 29 -26 73t-7 126q0 26 1 61q1 125 8 172q9 58 32 91q28 42 85 60q50 16 129 15q26 0 53 -3l30 133l39 -9l-29 -130q81 -15 120 -75
q18 -30 25.5 -75t7.5 -129v-56zM538 329v52q0 87 -6 125t-23 64q-30 44 -90 54l-136 -590q15 -1 45 -1q75 -1 118 16q36 13 56 42t27 74.5t9 163.5zM380 631q-30 2 -44 2q-76 1 -119 -16q-37 -14 -57 -43t-27 -75t-9 -165v-48q0 -88 6 -126t24 -65q30 -44 90 -54z" />
    <glyph glyph-name="glyph146" unicode="&#x221e;" horiz-adv-x="564" 
d="M256 237q-42 58 -58 69.5t-51 11.5q-41 0 -53 -15q-15 -17 -15 -66q0 -46 14.5 -62.5t53.5 -16.5q30 0 50.5 15t58.5 64zM416 125q-42 0 -74 23q-26 18 -62 63q-38 -50 -67 -68t-66 -18q-53 0 -77 24q-27 27 -27 88q0 68 34 95q24 19 69 19q48 0 75 -20q25 -18 59 -69
q42 60 71 76q23 13 66 13q52 0 77 -26q26 -28 26 -88q0 -59 -24.5 -85.5t-79.5 -26.5zM305 237q46 -53 58 -62q22 -17 53 -17q37 0 51 14q17 17 17 65q0 49 -13.5 65t-54.5 16q-22 0 -33.5 -3t-22.5 -12q-16 -13 -55 -66z" />
    <glyph glyph-name="plusminus" unicode="&#xb1;" horiz-adv-x="562" 
d="M519 286h-218v-193h-41v193h-218v40h218v191h41v-191h218v-40zM525 0h-488v39h488v-39z" />
    <glyph glyph-name="lessequal" unicode="&#x2264;" horiz-adv-x="562" 
d="M524 131l-16 -38l-466 193v40l466 191l16 -38l-430 -172zM525 0h-488v39h488v-39z" />
    <glyph glyph-name="greaterequal" unicode="&#x2265;" horiz-adv-x="562" 
d="M520 286l-465 -193l-17 38l431 176l-431 172l17 38l465 -191v-40zM525 0h-488v39h488v-39z" />
    <glyph glyph-name="yen" unicode="&#xa5;" horiz-adv-x="533" 
d="M508 667l-151 -258h90v-38h-113l-41 -71h154v-39h-158v-261h-43v261h-159v39h156l-43 71h-113v38h91l-153 258h50l194 -332l192 332h47z" />
    <glyph glyph-name="mu" unicode="&#xb5;" horiz-adv-x="539" 
d="M456 0h-42v73q-42 -80 -160 -80q-92 0 -128 46v-230h-43v669h43v-246v-52q0 -46 5 -71t18 -40q29 -35 107 -35q109 0 140 78q10 24 13.5 57.5t3.5 97.5v211h43v-478z" />
    <glyph glyph-name="partialdiff" unicode="&#x2202;" horiz-adv-x="553" 
d="M474 239q1 -88 -13 -135q-16 -57 -59 -83q-46 -28 -132 -28q-87 0 -133 28q-42 26 -58 83q-13 46 -13 135q0 83 11 127q14 59 53 88q44 32 125 32q43 0 73 -8l-202 202l29 26l231 -234q57 -58 73 -107q14 -41 15 -126zM431 239q0 121 -46 166q-39 39 -129 40
q-100 1 -130 -66q-18 -41 -18 -140q0 -79 8 -113q11 -48 44 -70q36 -23 110 -23q73 0 109 24q33 21 44 69q8 35 8 113z" />
    <glyph glyph-name="summation" unicode="&#x2211;" horiz-adv-x="517" 
d="M492 0h-456v40l261 303l-261 284v40h456v-40h-401l260 -283l-262 -304h403v-40z" />
    <glyph glyph-name="product" unicode="&#x220f;" horiz-adv-x="649" 
d="M552 0h-44v627h-369v-627h-44v627h-81v40h620v-40h-82v-627z" />
    <glyph glyph-name="pi" unicode="&#x3c0;" horiz-adv-x="639" 
d="M546 0h-10q-48 0 -69 22q-20 21 -20 71v346h-266v-439h-43v439h-56v39h457v-39h-49v-344q0 -33 10 -44t40 -11h6v-40z" />
    <glyph glyph-name="integral" unicode="&#x222b;" horiz-adv-x="414" 
d="M-195 -83h41q0 -70 116 -70q64 0 91 21q28 22 28 75v624q0 66 34 99q39 38 126 38q76 0 117 -28q42 -28 42 -83h-41q0 70 -116 70q-64 0 -91 -21q-28 -22 -28 -75v-624q0 -66 -34 -99q-39 -38 -126 -38q-76 0 -117 28q-42 28 -42 83z" />
    <glyph glyph-name="ordfeminine" unicode="&#xaa;" horiz-adv-x="378" 
d="M334 336h-32v48q-42 -53 -130 -53q-74 0 -104 25q-28 23 -28 75q0 67 46 90q30 15 91 15h120q0 37 -4 54.5t-14 27.5q-22 22 -88 22q-52 0 -77 -13q-28 -16 -28 -51h-37q0 60 53 83q34 15 95 15q96 0 123 -47q8 -14 11 -31t3 -49v-211zM296 502h-122q-50 0 -71 -14
q-25 -16 -25 -56q0 -41 22 -54q20 -12 70 -12q84 0 111 47q15 28 15 89z" />
    <glyph glyph-name="ordmasculine" unicode="&#xba;" horiz-adv-x="378" 
d="M340 503q0 -62 -9 -93q-11 -40 -42 -58q-34 -20 -100 -20q-100 0 -130 51q-21 34 -21 120q0 62 9 93q11 40 42 58q34 20 100 20q100 0 130 -51q21 -34 21 -120zM302 503q0 48 -4 71t-16 37q-23 28 -93 28q-52 0 -76 -14q-22 -12 -29.5 -37t-7.5 -85q0 -48 4 -71t16 -37
q23 -28 93 -28q52 0 76 14q22 12 29.5 37t7.5 85z" />
    <glyph glyph-name="Omega" unicode="&#x2126;" horiz-adv-x="666" 
d="M584 0h-191v40q42 5 69 18.5t44 38.5q20 30 26.5 76t6.5 163q0 125 -6 163q-11 70 -51 100q-47 34 -149 34t-149 -34q-40 -30 -51 -100q-6 -38 -6 -163q0 -115 6.5 -161.5t27.5 -77.5q17 -25 44 -38.5t69 -18.5v-40h-191v40h86q-43 23 -63 65q-17 36 -21 98q-2 31 -2 134
q0 87 1.5 117.5t5.5 60.5q14 80 64 117q57 42 179 42t179 -42q50 -37 64 -117q4 -30 5.5 -60.5t1.5 -117.5q0 -105 -2 -134q-4 -62 -21 -98q-19 -42 -62 -65h86v-40z" />
    <glyph glyph-name="ae" unicode="&#xe6;" horiz-adv-x="877" 
d="M811 241h-355q0 -78 8 -113q11 -48 44 -70q36 -24 109 -24q70 0 105 20q42 24 42 77h40q0 -138 -188 -138q-158 0 -183 103q-19 -59 -86 -85q-47 -18 -109 -18q-100 0 -142 36q-38 33 -38 103q0 92 57 125q41 24 128 24h171q0 69 -5 92q-8 38 -38 54q-34 18 -108 18
t-108 -18q-44 -24 -44 -80h-40q0 85 70 118q46 21 130 21q63 0 106 -17q50 -21 65 -64q37 81 171 81q79 0 122 -24q43 -22 60 -72q16 -45 16 -125v-24zM769 281q0 63 -13 97q-14 36 -47 52q-34 16 -96 16q-95 0 -128 -44q-28 -37 -28 -121h312zM414 242h-175q-75 0 -105 -23
q-33 -24 -33 -86q0 -59 35 -81q30 -20 99 -20q80 0 121 26q36 23 49 72q9 37 9 112z" />
    <glyph glyph-name="oslash" unicode="&#xf8;" horiz-adv-x="542" 
d="M476 237q-1 -89 -15 -136q-17 -56 -60 -82q-46 -27 -134 -26q-28 0 -60 5l-33 -93l-38 13l32 90q-67 24 -89 90q-13 40 -13 115v28q1 85 12 127q15 59 56 87q48 32 139 31q30 0 60 -5l32 91l38 -13l-31 -88q68 -24 90 -94q14 -42 14 -119v-21zM433 238q1 24 1 32
q0 66 -14 102q-18 45 -62 60l-138 -395q28 -4 47 -4q74 -1 111 22q33 21 45 69q9 36 10 114zM319 442q-21 3 -46 3q-73 0 -110 -23q-33 -21 -44 -69q-9 -35 -9 -113l-1 -44q0 -62 14 -95q18 -40 59 -54z" />
    <glyph glyph-name="questiondown" unicode="&#xbf;" horiz-adv-x="420" 
d="M262 452q0 -34 -34 -34q-35 0 -35 34t35 34q34 0 34 -34zM389 -53q0 -81 -50 -114q-42 -27 -127 -27q-100 0 -141 41q-39 39 -39 125q0 67 30 105q24 32 77 55q45 20 56.5 40.5t11.5 81.5v36h43v-53q0 -58 -19 -88t-68 -51t-68 -46q-21 -29 -21 -80q0 -76 35 -103
q30 -23 101 -23q79 0 111 26q28 23 28 75h40z" />
    <glyph glyph-name="exclamdown" unicode="&#xa1;" horiz-adv-x="281" 
d="M175 452q0 -34 -34 -34q-35 0 -35 34t35 34q34 0 34 -34zM162 -189h-42v477h42v-477z" />
    <glyph glyph-name="logicalnot" unicode="&#xac;" horiz-adv-x="562" 
d="M519 0h-41v317h-435v40h476v-357z" />
    <glyph glyph-name="radical" unicode="&#x221a;" horiz-adv-x="721" 
d="M717 827v-37h-237l-218 -790h-66l-90 325h-102v37h135l90 -330l217 795h271z" />
    <glyph glyph-name="florin" unicode="&#x192;" horiz-adv-x="562" 
d="M513 533h-42q0 65 -46 87q-29 14 -92 14q-52 0 -84 -9.5t-52 -30.5q-14 -14 -19.5 -36.5t-5.5 -62.5v-31v-110h295v-39h-295v-506h-43v506h-56v39h56v107v29q0 51 7 78q9 35 31 57q51 49 156 49q52 0 83.5 -5.5t53.5 -19.5q53 -32 53 -116z" />
    <glyph glyph-name="approxequal" unicode="&#x2248;" horiz-adv-x="562" 
d="M527 358l-79 -50q-34 -22 -79 -22q-42 0 -74 20q-13 8 -54 32q-24 14 -49 14q-28 0 -54 -16l-79 -48l-24 33l79 49q35 22 80 22q41 0 73 -19l55 -33q28 -14 52 -14q25 0 50 16l81 50zM527 164l-79 -50q-34 -22 -79 -22q-42 0 -74 20q-14 8 -54 31q-24 14 -49 14
q-28 0 -54 -15l-79 -48l-24 33l79 49q35 22 80 22q41 0 73 -19l55 -32q28 -14 52 -14q25 0 50 15l81 50z" />
    <glyph glyph-name="infinity" unicode="&#x2206;" horiz-adv-x="564" 
d="M256 237q-42 58 -58 69.5t-51 11.5q-41 0 -53 -15q-15 -17 -15 -66q0 -46 14.5 -62.5t53.5 -16.5q30 0 50.5 15t58.5 64zM416 125q-42 0 -74 23q-26 18 -62 63q-38 -50 -67 -68t-66 -18q-53 0 -77 24q-27 27 -27 88q0 68 34 95q24 19 69 19q48 0 75 -20q25 -18 59 -69
q42 60 71 76q23 13 66 13q52 0 77 -26q26 -28 26 -88q0 -59 -24.5 -85.5t-79.5 -26.5zM305 237q46 -53 58 -62q22 -17 53 -17q37 0 51 14q17 17 17 65q0 49 -13.5 65t-54.5 16q-22 0 -33.5 -3t-22.5 -12q-16 -13 -55 -66z" />
    <glyph glyph-name="guillemotleft" unicode="&#xab;" horiz-adv-x="447" 
d="M396 404q-60 -62 -76 -82q-37 -49 -37 -84q0 -41 45 -94q12 -15 66 -69l-28 -28q-66 66 -85 92q-39 53 -39 98q0 50 51 114q16 20 75 82zM207 404q-60 -62 -76 -82q-37 -49 -37 -84q0 -41 45 -94q12 -15 66 -69l-28 -28q-66 66 -85 92q-39 53 -39 98q0 50 51 114
q16 20 75 82z" />
    <glyph glyph-name="guillemotright" unicode="&#xbb;" horiz-adv-x="447" 
d="M394 237q0 -51 -49 -111q-17 -21 -75 -79l-28 28q60 60 75 80q36 46 36 83q0 39 -46 95q-13 16 -67 71l28 29q66 -69 86 -96q40 -55 40 -100zM205 237q0 -51 -49 -111q-17 -21 -75 -79l-28 28q60 60 75 80q36 46 36 83q0 39 -46 95q-13 16 -67 71l28 29q66 -69 86 -96
q40 -55 40 -100z" />
    <glyph glyph-name="ellipsis" unicode="&#x2026;" horiz-adv-x="1002" 
d="M870 27q0 -34 -35 -34t-35 34t34 34q36 0 36 -34zM535 27h1q0 -34 -35 -34t-35 34t34 34q35 0 35 -34zM201 27h1q0 -34 -35 -34t-35 34t34 34q35 0 35 -34z" />
    <glyph glyph-name="glyph172" horiz-adv-x="561" 
 />
    <glyph glyph-name="Agrave" unicode="&#xc0;" horiz-adv-x="607" 
d="M581 0h-47l-78 204h-308l-77 -204h-45l254 667h46zM441 242l-138 373l-140 -373h278zM393 731h-51l-133 129h54z" />
    <glyph glyph-name="Atilde" unicode="&#xc3;" horiz-adv-x="607" 
d="M581 0h-47l-78 204h-308l-77 -204h-45l254 667h46zM441 242l-138 373l-140 -373h278zM490 826l-53 -29q-32 -18 -67 -18q-30 0 -55 14l-39 22q-19 9 -35 9q-18 0 -37 -11l-65 -36l-20 31l65 37q33 16 61 16t55 -15q36 -20 39 -21q19 -9 36 -9q18 0 36 10l61 32z" />
    <glyph glyph-name="Otilde" unicode="&#xd5;" horiz-adv-x="665" 
d="M582 334q0 -87 -1.5 -118t-5.5 -61q-14 -82 -64 -119q-57 -44 -179 -44t-179 44q-50 37 -64 119q-4 30 -5.5 61t-1.5 118t1.5 118t5.5 60q14 82 64 119q57 43 179 43t179 -43q50 -37 64 -119q4 -29 5.5 -60t1.5 -118zM538 333q0 125 -6 164q-11 71 -51 101
q-47 35 -149 35t-149 -35q-40 -30 -51 -101q-6 -39 -6 -164t6 -164q11 -70 51 -101q47 -34 149 -34t149 34q40 31 51 101q6 39 6 164zM518 826l-53 -29q-32 -18 -67 -18q-30 0 -55 14l-39 22q-19 9 -35 9q-18 0 -37 -11l-65 -36l-20 31l65 37q33 16 61 16t55 -15
q36 -20 39 -21q19 -9 36 -9q18 0 36 10l61 32z" />
    <glyph glyph-name="OE" unicode="&#x152;" horiz-adv-x="916" 
d="M832 0h-496q-97 0 -146 21q-43 18 -70 61q-22 37 -30 89.5t-8 162.5t8 162.5t30 88.5q30 48 84 66q47 16 132 16h496v-40h-326v-264h316v-40h-316v-283h326v-40zM463 40v587h-122q-86 0 -127 -15q-34 -13 -54 -43q-19 -30 -26.5 -80t-7.5 -155q0 -104 7.5 -155.5
t27.5 -80.5q22 -33 61 -45.5t120 -12.5h121z" />
    <glyph glyph-name="oe" unicode="&#x153;" horiz-adv-x="895" 
d="M829 235h-355q0 -76 8 -111q12 -47 44 -68q36 -23 108 -23q147 0 147 98h40q0 -138 -188 -138q-152 0 -180 97q-16 -56 -80 -80q-44 -17 -102 -17q-87 0 -133 28q-42 26 -59 83q-13 46 -13 135q0 85 11 128q14 58 56 87q47 32 138 32q70 0 116 -22q50 -25 66 -75
q29 97 177 97q87 0 132 -30q41 -27 56 -86q11 -45 11 -135zM787 274q0 99 -37 136q-35 36 -120 36q-94 0 -129 -48q-27 -38 -27 -124h313zM433 239q0 78 -8 113q-11 48 -44 70q-37 23 -110 23q-74 0 -110 -24q-33 -21 -44 -69q-8 -35 -8 -113t8 -113q11 -48 44 -69
q36 -24 110 -24q73 0 109 24q33 22 45 69q8 36 8 113z" />
    <glyph glyph-name="endash" unicode="&#x2013;" horiz-adv-x="563" 
d="M520 220h-477v40h477v-40z" />
    <glyph glyph-name="emdash" unicode="&#x2014;" horiz-adv-x="1000" 
d="M900 220h-800v40h800v-40z" />
    <glyph glyph-name="quotedblleft" unicode="&#x201c;" horiz-adv-x="370" 
d="M338 649l-19 -18q-21 -19 -27 -36.5t-6 -56.5v-75h-42v75q0 47 8.5 71t33.5 45l25 22zM176 649l-19 -18q-21 -19 -27 -36.5t-6 -56.5v-75h-42v75q0 47 8.5 71t33.5 45l25 22z" />
    <glyph glyph-name="quotedblright" unicode="&#x201d;" horiz-adv-x="370" 
d="M288 592q0 -47 -8.5 -71t-33.5 -45l-25 -22l-27 27l19 18q21 19 27 36.5t6 56.5v75h42v-75zM126 592q0 -47 -8.5 -71t-33.5 -45l-25 -22l-27 27l19 18q21 19 27 36.5t6 56.5v75h42v-75z" />
    <glyph glyph-name="quoteleft" unicode="&#x2018;" horiz-adv-x="208" 
d="M176 649l-19 -18q-21 -19 -27 -36.5t-6 -56.5v-75h-42v75q0 47 8.5 71t33.5 45l25 22z" />
    <glyph glyph-name="quoteright" unicode="&#x2019;" horiz-adv-x="208" 
d="M126 592q0 -47 -8.5 -71t-33.5 -45l-25 -22l-27 27l19 18q21 19 27 36.5t6 56.5v75h42v-75z" />
    <glyph glyph-name="divide" unicode="&#xf7;" horiz-adv-x="562" 
d="M316 452q0 -34 -35 -34q-34 0 -34 34t34 34q35 0 35 -34zM525 220h-488v40h488v-40zM316 27q0 -34 -35 -34q-34 0 -34 34t34 34q35 0 35 -34z" />
    <glyph glyph-name="lozenge" unicode="&#x25ca;" horiz-adv-x="632" 
d="M290 667h50l250 -333l-250 -334h-50l-245 334zM315 631l-218 -297l218 -298l223 298z" />
    <glyph glyph-name="ydieresis" unicode="&#xff;" horiz-adv-x="536" 
d="M410 68q-45 -76 -160 -76q-93 0 -134 41q-30 30 -37 83q-3 24 -3 107v255h43v-247q0 -88 4 -114q6 -36 27 -55q30 -29 101 -29q115 0 144 84q9 25 11.5 52t2.5 97v212h43v-435q0 -58 -4.5 -90t-16.5 -58q-23 -48 -78 -71q-42 -18 -97 -18q-93 0 -136 37q-40 34 -40 101
h41q0 -54 36 -77q32 -21 96 -21q51 0 86 16q37 17 53 50q11 24 14.5 53t3.5 103zM407 636q0 -33 -33 -33q-32 0 -32 33q0 17 7.5 24t24.5 7q33 0 33 -31zM193 636q0 -33 -33 -33q-32 0 -32 33q0 17 7.5 24t24.5 7q33 0 33 -31z" />
    <glyph glyph-name="Ydieresis" unicode="&#x178;" horiz-adv-x="521" 
d="M510 667l-229 -373v-294h-43v294l-227 373h49l202 -331l200 331h48zM400 825q0 -33 -33 -33q-32 0 -32 33q0 17 7.5 24t24.5 7q33 0 33 -31zM186 825q0 -33 -33 -33q-32 0 -32 33q0 17 7.5 24t24.5 7q33 0 33 -31z" />
    <glyph glyph-name="fraction" unicode="&#x2044;" horiz-adv-x="94" 
d="M236 667l-338 -667h-39l336 667h41z" />
    <glyph glyph-name="Euro" unicode="&#x20ac;" horiz-adv-x="562" 
d="M502 135q0 -85 -62 -118q-44 -24 -126 -24q-90 0 -137 36q-41 31 -55 94q-10 45 -10 136h-52v39h52v72h-52v39h52q0 92 10 137q14 63 55 93q47 35 137 35q93 0 139 -32q49 -34 49 -109h-42q0 63 -51 86q-33 15 -95 15q-75 0 -112 -31q-31 -26 -41 -80q-6 -33 -6 -114h182
v-39h-182v-72h182v-39h-182q0 -84 5 -116q9 -54 41 -79q37 -30 113 -30q72 0 106 21q40 24 40 80h42z" />
    <glyph glyph-name="guilsinglleft" unicode="&#x2039;" horiz-adv-x="258" 
d="M207 404q-60 -62 -76 -82q-37 -49 -37 -84q0 -41 45 -94q12 -15 66 -69l-28 -28q-66 66 -85 92q-39 53 -39 98q0 50 51 114q16 20 75 82z" />
    <glyph glyph-name="guilsinglright" unicode="&#x203a;" horiz-adv-x="258" 
d="M205 237q0 -51 -49 -111q-17 -21 -75 -79l-28 28q60 60 75 80q36 46 36 83q0 39 -46 95q-13 16 -67 71l28 29q66 -69 86 -96q40 -55 40 -100z" />
    <glyph glyph-name="daggerdbl" unicode="&#x2021;" horiz-adv-x="563" 
d="M453 204h-151v-295h-41v295h-151v39h151v196h-151v39h151v189h41v-189h151v-39h-151v-196h151v-39z" />
    <glyph glyph-name="periodcentered" unicode="&#xb7;" horiz-adv-x="209" 
d="M139 335q0 -34 -35 -34q-34 0 -34 34t34 34q35 0 35 -34z" />
    <glyph glyph-name="quotesinglbase" unicode="&#x201a;" horiz-adv-x="208" 
d="M126 -15q0 -47 -8.5 -71t-33.5 -45l-25 -22l-27 27q4 3 19 18q21 20 27 37t6 56v75h42v-75z" />
    <glyph glyph-name="quotedblbase" unicode="&#x201e;" horiz-adv-x="370" 
d="M288 -15q0 -47 -8.5 -71t-33.5 -45l-25 -22l-27 27l19 18q21 19 27 36.5t6 56.5v75h42v-75zM126 -15q0 -47 -8.5 -71t-33.5 -45l-25 -22l-27 27l19 18q21 19 27 36.5t6 56.5v75h42v-75z" />
    <glyph glyph-name="perthousand" unicode="&#x2030;" horiz-adv-x="1141" 
d="M307 467q0 -65 -2 -93t-8 -45q-23 -68 -115 -68t-115 68q-6 17 -8 45t-2 93q0 77 2.5 104.5t11.5 45.5q27 56 111 56q83 0 110 -56q9 -18 12 -47.5t3 -102.5zM270 467q0 99 -8 124q-7 24 -26 34.5t-54 10.5t-54 -10.5t-26 -34.5q-8 -25 -8 -124q0 -66 2 -93.5t9 -41.5
q15 -36 77 -36t77 36q11 26 11 135zM766 200q0 -65 -2 -93t-8 -45q-23 -68 -115 -68t-115 68q-6 17 -8 45t-2 93q0 77 2.5 104.5t11.5 45.5q27 56 111 56q83 0 110 -56q9 -18 12 -47.5t3 -102.5zM729 200q0 99 -8 124q-7 24 -26 34.5t-54 10.5t-54 -10.5t-26 -34.5
q-8 -25 -8 -124q0 -66 2 -93.5t9 -41.5q15 -36 77 -36t77 36q11 26 11 135zM1083 200q0 -65 -2 -93t-8 -45q-23 -68 -115 -68t-115 68q-6 17 -8 45t-2 93q0 77 2.5 104.5t11.5 45.5q27 56 111 56q83 0 110 -56q9 -18 12 -47.5t3 -102.5zM1046 200q0 99 -8 124
q-7 24 -26 34.5t-54 10.5t-54 -10.5t-26 -34.5q-8 -25 -8 -124q0 -66 2 -93.5t9 -41.5q15 -36 77 -36t77 36q11 26 11 135zM599 667l-338 -667h-39l336 667h41z" />
    <glyph glyph-name="Acircumflex" unicode="&#xc2;" horiz-adv-x="607" 
d="M581 0h-47l-78 204h-308l-77 -204h-45l254 667h46zM441 242l-138 373l-140 -373h278zM457 731h-51l-101 100l-102 -100h-52l133 129h41z" />
    <glyph glyph-name="Ecircumflex" unicode="&#xca;" horiz-adv-x="583" 
d="M499 0h-401v667h401v-40h-356v-264h346v-40h-346v-283h356v-40zM447 731h-51l-101 100l-102 -100h-52l133 129h41z" />
    <glyph glyph-name="Aacute" unicode="&#xc1;" horiz-adv-x="607" 
d="M581 0h-47l-78 204h-308l-77 -204h-45l254 667h46zM441 242l-138 373l-140 -373h278zM401 860l-133 -129h-51l130 129h54z" />
    <glyph glyph-name="Edieresis" unicode="&#xcb;" horiz-adv-x="583" 
d="M499 0h-401v667h401v-40h-356v-264h346v-40h-346v-283h356v-40zM439 829q0 -33 -33 -33q-32 0 -32 33q0 17 7.5 24t24.5 7q33 0 33 -31zM225 829q0 -33 -33 -33q-32 0 -32 33q0 17 7.5 24t24.5 7q33 0 33 -31z" />
    <glyph glyph-name="Egrave" unicode="&#xc8;" horiz-adv-x="583" 
d="M499 0h-401v667h401v-40h-356v-264h346v-40h-346v-283h356v-40zM374 731h-51l-133 129h54z" />
    <glyph glyph-name="Iacute" unicode="&#xcd;" horiz-adv-x="240" 
d="M142 0h-44v667h44v-667zM230 860l-133 -129h-51l130 129h54z" />
    <glyph glyph-name="Icircumflex" unicode="&#xce;" horiz-adv-x="240" 
d="M142 0h-44v667h44v-667zM273 731h-51l-101 100l-102 -100h-52l133 129h41z" />
    <glyph glyph-name="Idieresis" unicode="&#xcf;" horiz-adv-x="240" 
d="M142 0h-44v667h44v-667zM275 829q0 -33 -33 -33q-32 0 -32 33q0 17 7.5 24t24.5 7q33 0 33 -31zM61 829q0 -33 -33 -33q-32 0 -32 33q0 17 7.5 24t24.5 7q33 0 33 -31z" />
    <glyph glyph-name="Igrave" unicode="&#xcc;" horiz-adv-x="240" 
d="M142 0h-44v667h44v-667zM223 731h-51l-133 129h54z" />
    <glyph glyph-name="Oacute" unicode="&#xd3;" horiz-adv-x="665" 
d="M582 334q0 -87 -1.5 -118t-5.5 -61q-14 -82 -64 -119q-57 -44 -179 -44t-179 44q-50 37 -64 119q-4 30 -5.5 61t-1.5 118t1.5 118t5.5 60q14 82 64 119q57 43 179 43t179 -43q50 -37 64 -119q4 -29 5.5 -60t1.5 -118zM538 333q0 125 -6 164q-11 71 -51 101
q-47 35 -149 35t-149 -35q-40 -30 -51 -101q-6 -39 -6 -164t6 -164q11 -70 51 -101q47 -34 149 -34t149 34q40 31 51 101q6 39 6 164zM418 860l-133 -129h-51l130 129h54z" />
    <glyph glyph-name="Ocircumflex" unicode="&#xd4;" horiz-adv-x="665" 
d="M582 334q0 -87 -1.5 -118t-5.5 -61q-14 -82 -64 -119q-57 -44 -179 -44t-179 44q-50 37 -64 119q-4 30 -5.5 61t-1.5 118t1.5 118t5.5 60q14 82 64 119q57 43 179 43t179 -43q50 -37 64 -119q4 -29 5.5 -60t1.5 -118zM538 333q0 125 -6 164q-11 71 -51 101
q-47 35 -149 35t-149 -35q-40 -30 -51 -101q-6 -39 -6 -164t6 -164q11 -70 51 -101q47 -34 149 -34t149 34q40 31 51 101q6 39 6 164zM485 731h-51l-101 100l-102 -100h-52l133 129h41z" />
    <glyph glyph-name="glyph210" horiz-adv-x="270" 
 />
    <glyph glyph-name="Ograve" unicode="&#xd2;" horiz-adv-x="665" 
d="M582 334q0 -87 -1.5 -118t-5.5 -61q-14 -82 -64 -119q-57 -44 -179 -44t-179 44q-50 37 -64 119q-4 30 -5.5 61t-1.5 118t1.5 118t5.5 60q14 82 64 119q57 43 179 43t179 -43q50 -37 64 -119q4 -29 5.5 -60t1.5 -118zM538 333q0 125 -6 164q-11 71 -51 101
q-47 35 -149 35t-149 -35q-40 -30 -51 -101q-6 -39 -6 -164t6 -164q11 -70 51 -101q47 -34 149 -34t149 34q40 31 51 101q6 39 6 164zM431 731h-51l-133 129h54z" />
    <glyph glyph-name="Uacute" unicode="&#xda;" horiz-adv-x="649" 
d="M557 336v-64q0 -75 -6 -115q-7 -50 -25 -78q-30 -47 -82 -68q-48 -19 -120 -19q-174 0 -217 112q-16 41 -16 159l1 73v331h44v-331l-1 -88q0 -64 4 -94t15 -50q39 -70 170 -70q128 0 167 70q15 27 18.5 65.5t3.5 166.5v331h44v-331zM419 860l-133 -129h-51l130 129h54z
" />
    <glyph glyph-name="Ucircumflex" unicode="&#xdb;" horiz-adv-x="649" 
d="M557 336v-64q0 -75 -6 -115q-7 -50 -25 -78q-30 -47 -82 -68q-48 -19 -120 -19q-174 0 -217 112q-16 41 -16 159l1 73v331h44v-331l-1 -88q0 -64 4 -94t15 -50q39 -70 170 -70q128 0 167 70q15 27 18.5 65.5t3.5 166.5v331h44v-331zM478 731h-51l-101 100l-102 -100h-52
l133 129h41z" />
    <glyph glyph-name="Ugrave" unicode="&#xd9;" horiz-adv-x="649" 
d="M557 336v-64q0 -75 -6 -115q-7 -50 -25 -78q-30 -47 -82 -68q-48 -19 -120 -19q-174 0 -217 112q-16 41 -16 159l1 73v331h44v-331l-1 -88q0 -64 4 -94t15 -50q39 -70 170 -70q128 0 167 70q15 27 18.5 65.5t3.5 166.5v331h44v-331zM410 731h-51l-133 129h54z" />
    <glyph glyph-name="dotlessi" unicode="&#x131;" horiz-adv-x="211" 
d="M127 0h-43v478h43v-478z" />
    <glyph glyph-name="circumflex" unicode="&#x2c6;" horiz-adv-x="415" 
d="M361 538h-51l-101 100l-102 -100h-52l133 129h41z" />
    <glyph glyph-name="tilde" unicode="&#x2dc;" horiz-adv-x="415" 
d="M392 635l-53 -29q-32 -18 -67 -18q-30 0 -55 14l-39 22q-19 9 -35 9q-18 0 -37 -11l-65 -36l-20 31l65 37q33 16 61 16t55 -15q36 -20 39 -21q19 -9 36 -9q18 0 36 10l61 32z" />
    <glyph glyph-name="macron" unicode="&#xaf;" horiz-adv-x="415" 
d="M368 617h-320v38h320v-38z" />
    <glyph glyph-name="breve" unicode="&#x2d8;" horiz-adv-x="415" 
d="M345 667q0 -73 -31 -103q-29 -28 -106 -28q-73 0 -106 28q-17 15 -24 38.5t-7 64.5h41q0 -60 19 -76q20 -17 77 -17t77 17t20 76h40z" />
    <glyph glyph-name="dotaccent" unicode="&#x2d9;" horiz-adv-x="415" 
d="M240 636q0 -33 -33 -33q-32 0 -32 33q0 17 7.5 24t24.5 7q33 0 33 -31z" />
    <glyph glyph-name="ring" unicode="&#x2da;" horiz-adv-x="415" 
d="M314 625q0 -65 -24 -89q-23 -23 -82 -23q-60 0 -83 23q-24 24 -24 89q0 33 5.5 52t18.5 32q24 24 83 24q58 0 82 -24q13 -13 18.5 -32t5.5 -52zM279 624q0 48 -13 61q-13 15 -58 15t-59 -15q-13 -13 -13 -61q0 -49 13 -63q14 -16 59 -16q44 0 58 16q13 14 13 63z" />
    <glyph glyph-name="cedilla" unicode="&#xb8;" horiz-adv-x="415" 
d="M279 -114q0 -40 -19 -57q-19 -16 -57 -16q-41 0 -58.5 14t-17.5 47h33q0 -19 9 -25.5t34 -6.5q24 0 32.5 9t8.5 34q0 31 -23 38q-7 2 -42 3v74h35v-47q65 0 65 -67z" />
    <glyph glyph-name="hungarumlaut" unicode="&#x2dd;" horiz-adv-x="415" 
d="M385 667l-128 -126h-53l129 126h52zM217 667l-128 -126h-53l129 126h52z" />
    <glyph glyph-name="ogonek" unicode="&#x2db;" horiz-adv-x="410" 
d="M205 10l51 -10q-52 -19 -74 -47q-19 -23 -19 -56q0 -61 75 -61q10 0 30 2v-30q-20 -3 -38 -3q-51 0 -77 24q-26 23 -26 66q0 77 78 115z" />
    <glyph glyph-name="caron" unicode="&#x2c7;" horiz-adv-x="415" 
d="M361 667l-133 -129h-41l-132 129h51l101 -100l102 100h52z" />
    <glyph glyph-name="nonbreakingspace" unicode="&#xa0;" horiz-adv-x="270" 
 />
    <glyph glyph-name="currency" unicode="&#xa4;" horiz-adv-x="561" 
d="M18 104l90 92q-54 74 -54 147q0 36 12.5 68.5t42.5 75.5l-94 93l25 25l93 -94q43 31 75.5 43.5t71.5 12.5t71.5 -12.5t74.5 -43.5l94 93l24 -24l-93 -93q55 -71 55 -146q0 -38 -11.5 -69.5t-41.5 -75.5l93 -94l-24 -23l-94 93q-69 -55 -144 -55q-37 0 -71.5 13t-78.5 42
l-92 -92zM283 527q-51 0 -94 -25q-42 -24 -67 -65q-25 -43 -25 -93t25 -93q24 -42 66 -67t92 -25q49 0 92 25q41 25 66 66q25 43 25 93q0 49 -25 92q-24 42 -65 67q-42 25 -90 25z" />
    <glyph glyph-name="brokenbar" unicode="&#xa6;" horiz-adv-x="280" 
d="M161 371h-42v296h42v-296zM161 -191h-42v296h42v-296z" />
    <glyph glyph-name="uni00AD" unicode="&#xad;" horiz-adv-x="480" 
d="M386 220h-292v40h292v-40z" />
    <glyph glyph-name="twosuperior" unicode="&#xb2;" 
d="M308 560q0 -66 -42 -93q-13 -9 -29.5 -15t-60.5 -18q-31 -8 -44.5 -14t-21.5 -14q-17 -18 -17 -59v-45h214v-35h-252v90q0 62 44 87q16 10 45 18l40 11q49 14 65 28q22 20 22 59q0 47 -25 64q-20 14 -64 14q-50 0 -70 -13t-20 -44h-38q0 54 38 75q30 17 89 17
q69 0 98 -27t29 -86z" />
    <glyph glyph-name="threesuperior" unicode="&#xb3;" 
d="M314 376q0 -69 -39 -95q-30 -20 -93 -20q-68 0 -98 23t-30 71h38q1 -35 25 -48q20 -11 65 -11q57 0 75 15q20 16 20 64q0 55 -25 72q-19 14 -68 14h-64v34h64q51 0 68 13q21 16 21 57q0 45 -20 60q-19 13 -69 13q-51 0 -71 -15q-19 -13 -19 -44h-37q0 54 38 76
q30 18 89 18q72 0 100 -27q26 -25 26 -79q0 -38 -9 -57q-10 -22 -37 -32q26 -9 38 -33.5t12 -68.5z" />
    <glyph glyph-name="onesuperior" unicode="&#xb9;" 
d="M210 267h-38v349l-69 -63l-25 24l98 90h34v-400z" />
    <glyph glyph-name="onequarter" unicode="&#xbc;" horiz-adv-x="824" 
d="M775 112h-62v-112h-37v112h-180v33l182 255h35v-256h62v-32zM676 144v198l-138 -198h138zM599 667l-338 -667h-39l336 667h41zM210 267h-38v349l-69 -63l-25 24l98 90h34v-400z" />
    <glyph glyph-name="onehalf" unicode="&#xbd;" horiz-adv-x="824" 
d="M767 293q0 -66 -42 -93q-13 -9 -29.5 -15t-60.5 -18q-31 -8 -44.5 -14t-21.5 -14q-17 -18 -17 -59v-45h214v-35h-252v90q0 62 44 87q16 10 45 18l40 11q49 14 65 28q22 20 22 59q0 47 -25 64q-20 14 -64 14q-50 0 -70 -13t-20 -44h-38q0 54 38 75q30 17 89 17
q69 0 98 -27t29 -86zM599 667l-338 -667h-39l336 667h41zM210 267h-38v349l-69 -63l-25 24l98 90h34v-400z" />
    <glyph glyph-name="threequarters" unicode="&#xbe;" horiz-adv-x="824" 
d="M775 112h-62v-112h-37v112h-180v33l182 255h35v-256h62v-32zM676 144v198l-138 -198h138zM314 376q0 -69 -39 -95q-30 -20 -93 -20q-68 0 -98 23t-30 71h38q1 -35 25 -48q20 -11 65 -11q57 0 75 15q20 16 20 64q0 55 -25 72q-19 14 -68 14h-64v34h64q51 0 68 13
q21 16 21 57q0 45 -20 60q-19 13 -69 13q-51 0 -71 -15q-19 -13 -19 -44h-37q0 54 38 76q30 18 89 18q72 0 100 -27q26 -25 26 -79q0 -38 -9 -57q-10 -22 -37 -32q26 -9 38 -33.5t12 -68.5zM599 667l-338 -667h-39l336 667h41z" />
    <glyph glyph-name="Eth" unicode="&#xd0;" horiz-adv-x="678" 
d="M596 334q0 -110 -8 -162.5t-30 -89.5q-30 -49 -83 -66q-47 -16 -133 -16h-226v316h-87v40h87v311h226q97 0 146 -21q43 -18 70 -61q22 -37 30 -89.5t8 -161.5zM552 334q0 104 -7.5 155t-27.5 81q-22 33 -61.5 45.5t-119.5 12.5h-177v-272h189v-40h-189v-276h177
q86 0 127 15q34 13 54 43t27.5 81t7.5 155z" />
    <glyph glyph-name="multiply" unicode="&#xd7;" horiz-adv-x="563" 
d="M504 51l-29 -28l-194 195l-193 -195l-29 28l194 194l-193 193l28 28l193 -192l194 192l28 -28l-193 -193z" />
    <glyph glyph-name="Yacute" unicode="&#xdd;" horiz-adv-x="521" 
d="M510 667l-229 -373v-294h-43v294l-227 373h49l202 -331l200 331h48zM393 867l-133 -129h-51l130 129h54z" />
    <glyph glyph-name="Thorn" unicode="&#xde;" horiz-adv-x="602" 
d="M556 335q0 -84 -31 -125q-27 -36 -85 -47q-37 -7 -127 -7h-171v-156h-44v667h44v-153h171q92 0 128 -7q58 -10 84 -46q31 -41 31 -126zM512 336q0 69 -26 100q-22 28 -71 35q-25 4 -106 4h-167v-279h167q83 0 107 4q49 7 71 34q25 32 25 102z" />
    <glyph glyph-name="eth" unicode="&#xf0;" horiz-adv-x="540" 
d="M474 239q1 -88 -13 -135q-16 -57 -59 -83q-46 -28 -132 -28q-87 0 -133 28q-42 26 -58 83q-13 46 -13 135q0 83 11 127q14 59 53 88q44 32 125 32q43 0 73 -8l-121 120l-61 -53l-24 28l60 51l-56 56l29 26l57 -57l61 53l24 -28l-59 -51l148 -151q57 -58 73 -107
q14 -41 15 -126zM431 239q0 121 -46 166q-39 39 -129 40q-100 1 -130 -66q-18 -41 -18 -140q0 -79 8 -113q11 -48 44 -70q36 -23 110 -23q73 0 109 24q33 21 44 69q8 35 8 113z" />
    <glyph glyph-name="yacute" unicode="&#xfd;" horiz-adv-x="536" 
d="M410 68q-45 -76 -160 -76q-93 0 -134 41q-30 30 -37 83q-3 24 -3 107v255h43v-247q0 -88 4 -114q6 -36 27 -55q30 -29 101 -29q115 0 144 84q9 25 11.5 52t2.5 97v212h43v-435q0 -58 -4.5 -90t-16.5 -58q-23 -48 -78 -71q-42 -18 -97 -18q-93 0 -136 37q-40 34 -40 101
h41q0 -54 36 -77q32 -21 96 -21q51 0 86 16q37 17 53 50q11 24 14.5 53t3.5 103zM365 667l-133 -129h-51l130 129h54z" />
    <glyph glyph-name="thorn" unicode="&#xfe;" horiz-adv-x="552" 
d="M486 239q0 -86 -11 -130q-14 -58 -53 -85q-44 -31 -128 -31q-67 0 -109 22q-36 18 -58 55v-261h-43v888h43v-288q25 42 69 60q40 17 98 17q84 0 128 -31q39 -28 53 -86q11 -44 11 -130zM443 240q0 71 -6 104q-10 49 -39 73q-33 27 -99 27t-102 -18q-38 -19 -55 -63
q-16 -44 -16 -123q0 -125 44 -168q38 -38 129 -38q100 0 128 67q9 22 12.5 52t3.5 87z" />
    <glyph glyph-name="Amacron" unicode="&#x100;" horiz-adv-x="607" 
d="M581 0h-47l-78 204h-308l-77 -204h-45l254 667h46zM441 242l-138 373l-140 -373h278zM463 807h-320v38h320v-38z" />
    <glyph glyph-name="amacron" unicode="&#x101;" horiz-adv-x="531" 
d="M455 0h-40v75q-40 -82 -178 -82q-99 0 -141 38q-38 34 -38 104q0 93 56 125q40 23 128 23h170q-1 73 -4 89q-6 38 -35 54q-34 19 -110 19q-74 0 -108 -18q-44 -24 -44 -80h-40q0 85 70 118q46 21 130 21q124 0 162 -55q15 -23 19 -60q3 -20 3 -53v-40v-278zM412 244h-174
q-76 0 -105 -22q-32 -24 -32 -86q0 -60 34 -83q31 -21 99 -21q114 0 151 57q27 39 27 131v24zM427 617h-320v38h320v-38z" />
    <glyph glyph-name="Abreve" unicode="&#x102;" horiz-adv-x="607" 
d="M581 0h-47l-78 204h-308l-77 -204h-45l254 667h46zM441 242l-138 373l-140 -373h278zM440 867q0 -73 -31 -103q-29 -28 -106 -28q-73 0 -106 28q-17 15 -24 38.5t-7 64.5h41q0 -60 19 -76q20 -17 77 -17t77 17t20 76h40z" />
    <glyph glyph-name="abreve" unicode="&#x103;" horiz-adv-x="531" 
d="M455 0h-40v75q-40 -82 -178 -82q-99 0 -141 38q-38 34 -38 104q0 93 56 125q40 23 128 23h170q-1 73 -4 89q-6 38 -35 54q-34 19 -110 19q-74 0 -108 -18q-44 -24 -44 -80h-40q0 85 70 118q46 21 130 21q124 0 162 -55q15 -23 19 -60q3 -20 3 -53v-40v-278zM412 244h-174
q-76 0 -105 -22q-32 -24 -32 -86q0 -60 34 -83q31 -21 99 -21q114 0 151 57q27 39 27 131v24zM402 667q0 -73 -31 -103q-29 -28 -106 -28q-73 0 -106 28q-17 15 -24 38.5t-7 64.5h41q0 -60 19 -76q20 -17 77 -17t77 17t20 76h40z" />
    <glyph glyph-name="Aogonek" unicode="&#x104;" horiz-adv-x="607" 
d="M326 667l255 -667q-52 -20 -73 -47q-18 -23 -18 -56q0 -60 73 -60q10 0 30 2v-31q-19 -3 -38 -3q-51 0 -77 24q-26 23 -26 66q0 77 78 115l-74 194h-308l-77 -204h-45l254 667h46zM441 242l-138 373l-140 -373h278z" />
    <glyph glyph-name="aogonek" unicode="&#x105;" horiz-adv-x="531" 
d="M415 15v60q-40 -82 -178 -82q-99 0 -141 38q-38 34 -38 104q0 93 56 125q40 23 128 23h170q-1 73 -4 89q-6 38 -35 54q-34 19 -110 19q-74 0 -108 -18q-44 -24 -44 -80h-40q0 85 70 118q46 21 130 21q124 0 162 -55q15 -23 19 -60q3 -20 3 -53v-40v-278q-52 -19 -74 -47
q-19 -23 -19 -56q0 -61 75 -61q10 0 30 2v-30q-19 -3 -38 -3q-51 0 -77 24q-26 23 -26 66q0 83 89 120zM412 244h-174q-76 0 -105 -22q-32 -24 -32 -86q0 -60 34 -83q31 -21 99 -21q114 0 151 57q27 39 27 131v24z" />
    <glyph glyph-name="Cacute" unicode="&#x106;" horiz-adv-x="635" 
d="M562 170q0 -103 -60 -143q-52 -35 -165 -35q-122 0 -179 41q-52 36 -67 116q-9 51 -9 184t9 184q15 80 67 116q57 41 179 41q129 0 179 -46q46 -40 46 -131h-41q-1 52 -17 81q-18 29 -60 42q-41 13 -116 13q-99 0 -144 -34q-40 -30 -51 -100q-7 -42 -7 -166t6 -165
q11 -70 52 -100q45 -34 144 -34q117 0 158 34q34 30 35 102h41zM418 860l-133 -129h-51l130 129h54z" />
    <glyph glyph-name="cacute" unicode="&#x107;" horiz-adv-x="515" 
d="M457 131q0 -82 -65 -115q-44 -23 -123 -23q-87 0 -133 28q-42 26 -57 82q-13 46 -13 136q0 89 13 136q16 57 58 83q45 28 132 28q188 0 188 -139h-40q0 98 -147 98q-74 0 -110 -23q-33 -22 -43 -69q-8 -35 -8 -113t8 -113q11 -48 43 -69q36 -24 110 -24q71 0 105 19
q42 24 42 78h40zM358 667l-133 -129h-51l130 129h54z" />
    <glyph glyph-name="Ccircumflex" unicode="&#x108;" horiz-adv-x="635" 
d="M562 170q0 -103 -60 -143q-52 -35 -165 -35q-122 0 -179 41q-52 36 -67 116q-9 51 -9 184t9 184q15 80 67 116q57 41 179 41q129 0 179 -46q46 -40 46 -131h-41q-1 52 -17 81q-18 29 -60 42q-41 13 -116 13q-99 0 -144 -34q-40 -30 -51 -100q-7 -42 -7 -166t6 -165
q11 -70 52 -100q45 -34 144 -34q117 0 158 34q34 30 35 102h41zM485 731h-51l-101 100l-102 -100h-52l133 129h41z" />
    <glyph glyph-name="ccircumflex" unicode="&#x109;" horiz-adv-x="515" 
d="M457 131q0 -82 -65 -115q-44 -23 -123 -23q-87 0 -133 28q-42 26 -57 82q-13 46 -13 136q0 89 13 136q16 57 58 83q45 28 132 28q188 0 188 -139h-40q0 98 -147 98q-74 0 -110 -23q-33 -22 -43 -69q-8 -35 -8 -113t8 -113q11 -48 43 -69q36 -24 110 -24q71 0 105 19
q42 24 42 78h40zM422 538h-51l-101 100l-102 -100h-52l133 129h41z" />
    <glyph glyph-name="Cdotaccent" unicode="&#x10a;" horiz-adv-x="635" 
d="M562 170q0 -103 -60 -143q-52 -35 -165 -35q-122 0 -179 41q-52 36 -67 116q-9 51 -9 184t9 184q15 80 67 116q57 41 179 41q129 0 179 -46q46 -40 46 -131h-41q-1 52 -17 81q-18 29 -60 42q-41 13 -116 13q-99 0 -144 -34q-40 -30 -51 -100q-7 -42 -7 -166t6 -165
q11 -70 52 -100q45 -34 144 -34q117 0 158 34q34 30 35 102h41zM364 828q0 -33 -33 -33q-32 0 -32 33q0 17 7.5 24t24.5 7q33 0 33 -31z" />
    <glyph glyph-name="cdotaccent" unicode="&#x10b;" horiz-adv-x="515" 
d="M457 131q0 -82 -65 -115q-44 -23 -123 -23q-87 0 -133 28q-42 26 -57 82q-13 46 -13 136q0 89 13 136q16 57 58 83q45 28 132 28q188 0 188 -139h-40q0 98 -147 98q-74 0 -110 -23q-33 -22 -43 -69q-8 -35 -8 -113t8 -113q11 -48 43 -69q36 -24 110 -24q71 0 105 19
q42 24 42 78h40zM302 636q0 -33 -33 -33q-32 0 -32 33q0 17 7.5 24t24.5 7q33 0 33 -31z" />
    <glyph glyph-name="Ccaron" unicode="&#x10c;" horiz-adv-x="635" 
d="M562 170q0 -103 -60 -143q-52 -35 -165 -35q-122 0 -179 41q-52 36 -67 116q-9 51 -9 184t9 184q15 80 67 116q57 41 179 41q129 0 179 -46q46 -40 46 -131h-41q-1 52 -17 81q-18 29 -60 42q-41 13 -116 13q-99 0 -144 -34q-40 -30 -51 -100q-7 -42 -7 -166t6 -165
q11 -70 52 -100q45 -34 144 -34q117 0 158 34q34 30 35 102h41zM486 862l-133 -129h-41l-132 129h51l101 -100l102 100h52z" />
    <glyph glyph-name="ccaron" unicode="&#x10d;" horiz-adv-x="515" 
d="M457 131q0 -82 -65 -115q-44 -23 -123 -23q-87 0 -133 28q-42 26 -57 82q-13 46 -13 136q0 89 13 136q16 57 58 83q45 28 132 28q188 0 188 -139h-40q0 98 -147 98q-74 0 -110 -23q-33 -22 -43 -69q-8 -35 -8 -113t8 -113q11 -48 43 -69q36 -24 110 -24q71 0 105 19
q42 24 42 78h40zM423 667l-133 -129h-41l-132 129h51l101 -100l102 100h52z" />
    <glyph glyph-name="Dcaron" unicode="&#x10e;" horiz-adv-x="660" 
d="M578 334q0 -110 -8 -162.5t-30 -89.5q-30 -49 -83 -66q-47 -16 -133 -16h-226v667h226q97 0 146 -21q43 -18 70 -61q22 -37 30 -89.5t8 -161.5zM534 334q0 104 -7.5 155t-27.5 81q-22 33 -61.5 45.5t-119.5 12.5h-177v-588h177q86 0 127 15q34 13 54 43t27.5 81t7.5 155z
M477 862l-133 -129h-41l-132 129h51l101 -100l102 100h52z" />
    <glyph glyph-name="dcaron" unicode="&#x10f;" horiz-adv-x="605" 
d="M468 0h-41v72q-46 -79 -169 -79q-85 0 -128 31q-40 27 -54 85q-10 43 -10 130q0 84 11 128q14 59 53 87q44 32 128 32q67 0 109 -22q36 -18 58 -55v288h43v-697zM426 238q0 125 -44 168q-38 38 -129 38q-98 0 -127 -66q-12 -27 -15 -73q-2 -24 -2 -67q0 -71 6 -104
q10 -49 39 -73q33 -27 99 -27t102 18q38 19 55 63q16 44 16 123zM605 664q0 -36 -7 -53.5t-29 -38.5l-32 -30l-29 29q15 13 34 31q14 12 17.5 23t3.5 38v34h42v-33z" />
    <glyph glyph-name="Dcroat" unicode="&#x110;" horiz-adv-x="678" 
d="M596 334q0 -110 -8 -162.5t-30 -89.5q-30 -49 -83 -66q-47 -16 -133 -16h-226v316h-87v40h87v311h226q97 0 146 -21q43 -18 70 -61q22 -37 30 -89.5t8 -161.5zM552 334q0 104 -7.5 155t-27.5 81q-22 33 -61.5 45.5t-119.5 12.5h-177v-272h189v-40h-189v-276h177
q86 0 127 15q34 13 54 43t27.5 81t7.5 155z" />
    <glyph glyph-name="dcroat" unicode="&#x111;" horiz-adv-x="552" 
d="M468 0h-41v72q-46 -79 -169 -79q-85 0 -128 31q-40 27 -54 85q-10 43 -10 130q0 84 11 128q14 59 53 87q44 32 128 32q67 0 109 -22q36 -18 58 -55v140h-169v36h169v112h43v-112h78v-36h-78v-549zM426 238q0 125 -44 168q-38 38 -129 38q-98 0 -127 -66q-12 -27 -15 -73
q-2 -24 -2 -67q0 -71 6 -104q10 -49 39 -73q33 -27 99 -27t102 18q38 19 55 63q16 44 16 123z" />
    <glyph glyph-name="Emacron" unicode="&#x112;" horiz-adv-x="583" 
d="M499 0h-401v667h401v-40h-356v-264h346v-40h-346v-283h356v-40zM459 807h-320v38h320v-38z" />
    <glyph glyph-name="emacron" unicode="&#x113;" horiz-adv-x="530" 
d="M464 235h-355q0 -76 8 -111q12 -46 44 -67q36 -23 108 -23q70 0 105 20q42 24 42 77h40q0 -138 -188 -138q-86 0 -131 28q-42 26 -58 82q-13 46 -13 135q0 88 12 134q16 58 57 85q45 29 130 29q87 0 132 -30q41 -27 55 -85q12 -46 12 -136zM422 274q0 99 -37 136
q-35 36 -120 36q-94 0 -129 -48q-27 -38 -27 -124h313zM425 617h-320v38h320v-38z" />
    <glyph glyph-name="Ebreve" unicode="&#x114;" horiz-adv-x="583" 
d="M499 0h-401v667h401v-40h-356v-264h346v-40h-346v-283h356v-40zM437 867q0 -73 -31 -103q-29 -28 -106 -28q-73 0 -106 28q-17 15 -24 38.5t-7 64.5h41q0 -60 19 -76q20 -17 77 -17t77 17t20 76h40z" />
    <glyph glyph-name="ebreve" unicode="&#x115;" horiz-adv-x="530" 
d="M464 235h-355q0 -76 8 -111q12 -46 44 -67q36 -23 108 -23q70 0 105 20q42 24 42 77h40q0 -138 -188 -138q-86 0 -131 28q-42 26 -58 82q-13 46 -13 135q0 88 12 134q16 58 57 85q45 29 130 29q87 0 132 -30q41 -27 55 -85q12 -46 12 -136zM422 274q0 99 -37 136
q-35 36 -120 36q-94 0 -129 -48q-27 -38 -27 -124h313zM402 667q0 -73 -31 -103q-29 -28 -106 -28q-73 0 -106 28q-17 15 -24 38.5t-7 64.5h41q0 -60 19 -76q20 -17 77 -17t77 17t20 76h40z" />
    <glyph glyph-name="Edotaccent" unicode="&#x116;" horiz-adv-x="583" 
d="M499 0h-401v667h401v-40h-356v-264h346v-40h-346v-283h356v-40zM332 828q0 -33 -33 -33q-32 0 -32 33q0 17 7.5 24t24.5 7q33 0 33 -31z" />
    <glyph glyph-name="edotaccent" unicode="&#x117;" horiz-adv-x="530" 
d="M464 235h-355q0 -76 8 -111q12 -46 44 -67q36 -23 108 -23q70 0 105 20q42 24 42 77h40q0 -138 -188 -138q-86 0 -131 28q-42 26 -58 82q-13 46 -13 135q0 88 12 134q16 58 57 85q45 29 130 29q87 0 132 -30q41 -27 55 -85q12 -46 12 -136zM422 274q0 99 -37 136
q-35 36 -120 36q-94 0 -129 -48q-27 -38 -27 -124h313zM298 636q0 -33 -33 -33q-32 0 -32 33q0 17 7.5 24t24.5 7q33 0 33 -31z" />
    <glyph glyph-name="Eogonek" unicode="&#x118;" horiz-adv-x="583" 
d="M499 0q-52 -20 -73 -47q-18 -23 -18 -56q0 -60 73 -60q10 0 30 2v-31q-19 -3 -38 -3q-51 0 -77 24q-26 23 -26 66q0 57 36 88q15 13 29 17h-337v667h401v-40h-356v-264h346v-40h-346v-283h356v-40z" />
    <glyph glyph-name="eogonek" unicode="&#x119;" horiz-adv-x="530" 
d="M464 235h-355q0 -76 8 -111q12 -46 44 -67q36 -23 108 -23q70 0 105 20q42 24 42 77h40q0 -60 -36 -95q-19 -17 -65 -40q-45 -22 -60 -38q-23 -24 -23 -61q0 -61 75 -61q10 0 30 2v-30q-20 -3 -38 -3q-51 0 -77 24q-26 23 -26 66q0 32 14 58t40 41q-7 -1 -22 -1
q-86 0 -131 28q-42 26 -58 82q-13 46 -13 135q0 88 12 134q16 58 57 85q45 29 130 29q87 0 132 -30q41 -27 55 -85q12 -46 12 -136zM422 274q0 99 -37 136q-35 36 -120 36q-94 0 -129 -48q-27 -38 -27 -124h313z" />
    <glyph glyph-name="Ecaron" unicode="&#x11a;" horiz-adv-x="583" 
d="M499 0h-401v667h401v-40h-356v-264h346v-40h-346v-283h356v-40zM453 862l-133 -129h-41l-132 129h51l101 -100l102 100h52z" />
    <glyph glyph-name="ecaron" unicode="&#x11b;" horiz-adv-x="530" 
d="M464 235h-355q0 -76 8 -111q12 -46 44 -67q36 -23 108 -23q70 0 105 20q42 24 42 77h40q0 -138 -188 -138q-86 0 -131 28q-42 26 -58 82q-13 46 -13 135q0 88 12 134q16 58 57 85q45 29 130 29q87 0 132 -30q41 -27 55 -85q12 -46 12 -136zM422 274q0 99 -37 136
q-35 36 -120 36q-94 0 -129 -48q-27 -38 -27 -124h313zM418 667l-133 -129h-41l-132 129h51l101 -100l102 100h52z" />
    <glyph glyph-name="Gcircumflex" unicode="&#x11c;" horiz-adv-x="659" 
d="M573 363v-147q0 -144 -91 -194q-54 -30 -157 -30q-118 0 -173 43q-48 37 -62 118q-8 48 -8 180q0 135 9 185q15 80 67 116q58 40 181 40q130 0 184 -46q50 -41 50 -131h-42q-1 81 -52 110q-45 26 -149 26q-101 0 -147 -34q-40 -30 -51 -101q-6 -39 -6 -165
q0 -97 0.5 -117.5t4.5 -47.5q10 -70 50 -100q45 -34 146 -34q130 0 174 64q18 26 23.5 62.5t5.5 125.5v37h-202v40h245zM485 731h-51l-101 100l-102 -100h-52l133 129h41z" />
    <glyph glyph-name="gcircumflex" unicode="&#x11d;" horiz-adv-x="551" 
d="M467 43q0 -58 -4.5 -90t-16.5 -58q-42 -89 -184 -89q-184 0 -185 138h41q0 -98 141 -98q117 0 148 66q15 30 17 76v69v20q-46 -78 -167 -78q-85 0 -128 30q-39 28 -53 85q-10 43 -10 130q0 82 9 123q13 58 52 86q44 33 129 33q124 0 170 -78v70h41v-435zM425 243
q0 122 -44 165q-38 37 -129 37q-99 0 -127 -65q-9 -22 -12.5 -51t-3.5 -86q0 -71 6 -104q10 -48 39 -71q33 -27 98 -27q66 0 102 18q38 18 55 62q16 43 16 122zM421 538h-51l-101 100l-102 -100h-52l133 129h41z" />
    <glyph glyph-name="Gbreve" unicode="&#x11e;" horiz-adv-x="659" 
d="M573 363v-147q0 -144 -91 -194q-54 -30 -157 -30q-118 0 -173 43q-48 37 -62 118q-8 48 -8 180q0 135 9 185q15 80 67 116q58 40 181 40q130 0 184 -46q50 -41 50 -131h-42q-1 81 -52 110q-45 26 -149 26q-101 0 -147 -34q-40 -30 -51 -101q-6 -39 -6 -165
q0 -97 0.5 -117.5t4.5 -47.5q10 -70 50 -100q45 -34 146 -34q130 0 174 64q18 26 23.5 62.5t5.5 125.5v37h-202v40h245zM468 867q0 -73 -31 -103q-29 -28 -106 -28q-73 0 -106 28q-17 15 -24 38.5t-7 64.5h41q0 -60 19 -76q20 -17 77 -17t77 17t20 76h40z" />
    <glyph glyph-name="gbreve" unicode="&#x11f;" horiz-adv-x="551" 
d="M467 43q0 -58 -4.5 -90t-16.5 -58q-42 -89 -184 -89q-184 0 -185 138h41q0 -98 141 -98q117 0 148 66q15 30 17 76v69v20q-46 -78 -167 -78q-85 0 -128 30q-39 28 -53 85q-10 43 -10 130q0 82 9 123q13 58 52 86q44 33 129 33q124 0 170 -78v70h41v-435zM425 243
q0 122 -44 165q-38 37 -129 37q-99 0 -127 -65q-9 -22 -12.5 -51t-3.5 -86q0 -71 6 -104q10 -48 39 -71q33 -27 98 -27q66 0 102 18q38 18 55 62q16 43 16 122zM404 667q0 -73 -31 -103q-29 -28 -106 -28q-73 0 -106 28q-17 15 -24 38.5t-7 64.5h41q0 -60 19 -76
q20 -17 77 -17t77 17t20 76h40z" />
    <glyph glyph-name="Gdotaccent" unicode="&#x120;" horiz-adv-x="659" 
d="M573 363v-147q0 -144 -91 -194q-54 -30 -157 -30q-118 0 -173 43q-48 37 -62 118q-8 48 -8 180q0 135 9 185q15 80 67 116q58 40 181 40q130 0 184 -46q50 -41 50 -131h-42q-1 81 -52 110q-45 26 -149 26q-101 0 -147 -34q-40 -30 -51 -101q-6 -39 -6 -165
q0 -97 0.5 -117.5t4.5 -47.5q10 -70 50 -100q45 -34 146 -34q130 0 174 64q18 26 23.5 62.5t5.5 125.5v37h-202v40h245zM364 828q0 -33 -33 -33q-32 0 -32 33q0 17 7.5 24t24.5 7q33 0 33 -31z" />
    <glyph glyph-name="gdotaccent" unicode="&#x121;" horiz-adv-x="551" 
d="M467 43q0 -58 -4.5 -90t-16.5 -58q-42 -89 -184 -89q-184 0 -185 138h41q0 -98 141 -98q117 0 148 66q15 30 17 76v69v20q-46 -78 -167 -78q-85 0 -128 30q-39 28 -53 85q-10 43 -10 130q0 82 9 123q13 58 52 86q44 33 129 33q124 0 170 -78v70h41v-435zM425 243
q0 122 -44 165q-38 37 -129 37q-99 0 -127 -65q-9 -22 -12.5 -51t-3.5 -86q0 -71 6 -104q10 -48 39 -71q33 -27 98 -27q66 0 102 18q38 18 55 62q16 43 16 122zM301 636q0 -33 -33 -33q-32 0 -32 33q0 17 7.5 24t24.5 7q33 0 33 -31z" />
    <glyph glyph-name="Gcommaaccent" unicode="&#x122;" horiz-adv-x="659" 
d="M573 363v-147q0 -144 -91 -194q-54 -30 -157 -30q-118 0 -173 43q-48 37 -62 118q-8 48 -8 180q0 135 9 185q15 80 67 116q58 40 181 40q130 0 184 -46q50 -41 50 -131h-42q-1 81 -52 110q-45 26 -149 26q-101 0 -147 -34q-40 -30 -51 -101q-6 -39 -6 -165
q0 -97 0.5 -117.5t4.5 -47.5q10 -70 50 -100q45 -34 146 -34q130 0 174 64q18 26 23.5 62.5t5.5 125.5v37h-202v40h245zM349 -77q0 -36 -7 -53.5t-29 -38.5l-32 -30l-29 29q15 13 34 31q14 12 17.5 23t3.5 38v34h42v-33z" />
    <glyph glyph-name="gcommaaccent" unicode="&#x123;" horiz-adv-x="551" 
d="M467 43q0 -58 -4.5 -90t-16.5 -58q-42 -89 -184 -89q-184 0 -185 138h41q0 -98 141 -98q117 0 148 66q15 30 17 76v69v20q-46 -78 -167 -78q-85 0 -128 30q-39 28 -53 85q-10 43 -10 130q0 82 9 123q13 58 52 86q44 33 129 33q124 0 170 -78v70h41v-435zM425 243
q0 122 -44 165q-38 37 -129 37q-99 0 -127 -65q-9 -22 -12.5 -51t-3.5 -86q0 -71 6 -104q10 -48 39 -71q33 -27 98 -27q66 0 102 18q38 18 55 62q16 43 16 122zM233 574q0 36 7 53.5t29 38.5l32 30l29 -29q-15 -13 -34 -31q-14 -12 -17.5 -23t-3.5 -38v-34h-42v33z" />
    <glyph glyph-name="Hcircumflex" unicode="&#x124;" horiz-adv-x="653" 
d="M555 0h-44v323h-369v-323h-44v667h44v-304h369v304h44v-667zM479 731h-51l-101 100l-102 -100h-52l133 129h41z" />
    <glyph glyph-name="hcircumflex" unicode="&#x125;" horiz-adv-x="536" 
d="M460 0h-43v247q0 88 -4 114q-6 36 -27 55q-30 29 -101 29q-115 0 -144 -84q-9 -25 -11.5 -52t-2.5 -97v-212h-43v697h43v-289q43 78 159 78q93 0 134 -41q30 -31 37 -84q3 -24 3 -106v-255zM258 757h-51l-101 100l-102 -100h-52l133 129h41z" />
    <glyph glyph-name="Hbar" unicode="&#x126;" horiz-adv-x="653" 
d="M555 0h-44v323h-369v-323h-44v497h-82v40h82v130h44v-130h369v130h44v-130h82v-40h-82v-497zM142 363h369v134h-369v-134z" />
    <glyph glyph-name="hbar" unicode="&#x127;" horiz-adv-x="536" 
d="M296 549h-169v-141q43 78 159 78q93 0 134 -41q30 -31 37 -84q3 -24 3 -106v-255h-43v247q0 88 -4 114q-6 36 -27 55q-30 29 -101 29q-115 0 -144 -84q-9 -25 -11.5 -52t-2.5 -97v-212h-43v549h-78v36h78v112h43v-112h169v-36z" />
    <glyph glyph-name="Itilde" unicode="&#x128;" horiz-adv-x="240" 
d="M142 0h-44v667h44v-667zM306 826l-53 -29q-32 -18 -67 -18q-30 0 -55 14l-39 22q-19 9 -35 9q-18 0 -37 -11l-65 -36l-20 31l65 37q33 16 61 16t55 -15q36 -20 39 -21q19 -9 36 -9q18 0 36 10l61 32z" />
    <glyph glyph-name="itilde" unicode="&#x129;" horiz-adv-x="211" 
d="M127 0h-43v478h43v-478zM291 635l-53 -29q-32 -18 -67 -18q-30 0 -55 14l-39 22q-19 9 -35 9q-18 0 -37 -11l-65 -36l-20 31l65 37q33 16 61 16t55 -15q36 -20 39 -21q19 -9 36 -9q18 0 36 10l61 32z" />
    <glyph glyph-name="Imacron" unicode="&#x12a;" horiz-adv-x="240" 
d="M142 0h-44v667h44v-667zM280 807h-320v38h320v-38z" />
    <glyph glyph-name="imacron" unicode="&#x12b;" horiz-adv-x="211" 
d="M127 0h-43v478h43v-478zM266 617h-320v38h320v-38z" />
    <glyph glyph-name="Ibreve" unicode="&#x12c;" horiz-adv-x="240" 
d="M142 0h-44v667h44v-667zM257 867q0 -73 -31 -103q-29 -28 -106 -28q-73 0 -106 28q-17 15 -24 38.5t-7 64.5h41q0 -60 19 -76q20 -17 77 -17t77 17t20 76h40z" />
    <glyph glyph-name="ibreve" unicode="&#x12d;" horiz-adv-x="211" 
d="M127 0h-43v478h43v-478zM243 667q0 -73 -31 -103q-29 -28 -106 -28q-73 0 -106 28q-17 15 -24 38.5t-7 64.5h41q0 -60 19 -76q20 -17 77 -17t77 17t20 76h40z" />
    <glyph glyph-name="Iogonek" unicode="&#x12e;" horiz-adv-x="240" 
d="M142 0q-52 -20 -73 -47q-18 -23 -18 -56q0 -60 73 -60q10 0 30 2v-31q-20 -3 -38 -3q-51 0 -77 24q-26 23 -26 66q0 79 85 120v652h44v-667z" />
    <glyph glyph-name="iogonek" unicode="&#x12f;" horiz-adv-x="211" 
d="M127 0q-52 -19 -74 -47q-19 -23 -19 -56q0 -61 75 -61q10 0 30 2v-30q-20 -3 -38 -3q-51 0 -77 24q-26 23 -26 66q0 80 86 119v464h43v-478zM138 643q0 -33 -32 -33t-32 33q0 31 32 31t32 -31z" />
    <glyph glyph-name="Idotaccent" unicode="&#x130;" horiz-adv-x="240" 
d="M142 0h-44v667h44v-667zM153 828q0 -33 -33 -33q-32 0 -32 33q0 17 7.5 24t24.5 7q33 0 33 -31z" />
    <glyph glyph-name="Jcircumflex" unicode="&#x134;" horiz-adv-x="526" 
d="M434 206q0 -119 -45 -166q-45 -48 -150 -48q-108 0 -154 44q-43 42 -43 134h41q0 -84 44 -113q34 -23 112 -23q87 0 119 36.5t32 133.5v463h44v-461zM564 731h-51l-101 100l-102 -100h-52l133 129h41z" />
    <glyph glyph-name="jcircumflex" unicode="&#x135;" horiz-adv-x="211" 
d="M258 538h-51l-101 100l-102 -100h-52l133 129h41zM-39 -190v40h15q63 0 86 22q22 22 22 77v529h43v-525q0 -82 -38 -115q-34 -28 -109 -28h-19z" />
    <glyph glyph-name="Kcommaaccent" unicode="&#x136;" horiz-adv-x="572" 
d="M548 0h-65l-341 314v-314h-44v667h43v-315l345 315h61l-368 -332zM322 -77q0 -36 -7 -53.5t-29 -38.5l-32 -30l-29 29q15 13 34 31q14 12 17.5 23t3.5 38v34h42v-33z" />
    <glyph glyph-name="kcommaaccent" unicode="&#x137;" horiz-adv-x="464" 
d="M445 0h-60l-258 242v-242h-43v697h43v-425l255 206h60l-274 -221zM286 -77q0 -36 -7 -53.5t-29 -38.5l-32 -30l-29 29q15 13 34 31q14 12 17.5 23t3.5 38v34h42v-33z" />
    <glyph glyph-name="Lacute" unicode="&#x139;" horiz-adv-x="509" 
d="M494 0h-396v667h44v-627h352v-40zM280 860l-133 -129h-51l130 129h54z" />
    <glyph glyph-name="lacute" unicode="&#x13a;" horiz-adv-x="278" 
d="M187 34v-38h-16q-60 0 -76 38q-11 24 -11 92v571h43v-564q0 -67 9 -83q10 -16 44 -16h7zM268 862l-133 -129h-51l130 129h54z" />
    <glyph glyph-name="Lcommaaccent" unicode="&#x13b;" horiz-adv-x="509" 
d="M494 0h-396v667h44v-627h352v-40zM317 -77q0 -36 -7 -53.5t-29 -38.5l-32 -30l-29 29q15 13 34 31q14 12 17.5 23t3.5 38v34h42v-33z" />
    <glyph glyph-name="lcommaaccent" unicode="&#x13c;" horiz-adv-x="211" 
d="M187 34v-38h-16q-60 0 -76 38q-11 24 -11 92v571h43v-564q0 -67 9 -83q10 -16 44 -16h7zM148 -77q0 -36 -7 -53.5t-29 -38.5l-32 -30l-29 29q15 13 34 31q14 12 17.5 23t3.5 38v34h42v-33z" />
    <glyph glyph-name="Lcaron" unicode="&#x13d;" horiz-adv-x="509" 
d="M494 0h-396v667h44v-627h352v-40zM307 634q0 -36 -7 -53.5t-29 -38.5l-32 -30l-29 29q15 13 34 31q14 12 17.5 23t3.5 38v34h42v-33z" />
    <glyph glyph-name="lcaron" unicode="&#x13e;" horiz-adv-x="265" 
d="M265 664q0 -36 -7 -53.5t-29 -38.5l-32 -30l-29 29q15 13 34 31q14 12 17.5 23t3.5 38v34h42v-33zM187 34v-38h-16q-60 0 -76 38q-11 24 -11 92v571h43v-564q0 -67 9 -83q10 -16 44 -16h7z" />
    <glyph glyph-name="Ldot" unicode="&#x13f;" horiz-adv-x="509" 
d="M494 0h-396v667h44v-627h352v-40zM407 343q0 -33 -33 -33q-32 0 -32 33q0 17 7.5 24t24.5 7q33 0 33 -31z" />
    <glyph glyph-name="ldot" unicode="&#x140;" horiz-adv-x="276" 
d="M276 343q0 -33 -33 -33q-32 0 -32 33q0 17 7.5 24t24.5 7q33 0 33 -31zM187 34v-38h-16q-60 0 -76 38q-11 24 -11 92v571h43v-564q0 -67 9 -83q10 -16 44 -16h7z" />
    <glyph glyph-name="Lslash" unicode="&#x141;" horiz-adv-x="526" 
d="M511 0h-396v300l-65 -66l-27 27l92 94v312h43v-276l88 88l27 -27l-115 -116v-296h353v-40z" />
    <glyph glyph-name="lslash" unicode="&#x142;" horiz-adv-x="211" 
d="M187 34v-38h-9q-40 0 -60 11q-19 11 -26.5 36t-7.5 80v182l-68 -71l-27 26l95 100v337h43v-300l69 71l26 -26l-95 -100v-209q0 -67 9 -83q10 -16 44 -16h7z" />
    <glyph glyph-name="Nacute" unicode="&#x143;" horiz-adv-x="651" 
d="M553 0h-56l-356 606v-606h-43v667h54l358 -605v605h43v-667zM417 860l-133 -129h-51l130 129h54z" />
    <glyph glyph-name="nacute" unicode="&#x144;" horiz-adv-x="536" 
d="M460 0h-43v247q0 88 -4 114q-6 36 -27 55q-30 29 -101 29q-115 0 -144 -84q-9 -25 -11.5 -52t-2.5 -97v-212h-43v478h41v-72q43 80 161 80q93 0 134 -41q30 -30 37 -83q3 -24 3 -107v-255zM363 667l-133 -129h-51l130 129h54z" />
    <glyph glyph-name="Ncommaaccent" unicode="&#x145;" horiz-adv-x="651" 
d="M553 0h-56l-356 606v-606h-43v667h54l358 -605v605h43v-667zM347 -77q0 -36 -7 -53.5t-29 -38.5l-32 -30l-29 29q15 13 34 31q14 12 17.5 23t3.5 38v34h42v-33z" />
    <glyph glyph-name="ncommaaccent" unicode="&#x146;" horiz-adv-x="536" 
d="M460 0h-43v247q0 88 -4 114q-6 36 -27 55q-30 29 -101 29q-115 0 -144 -84q-9 -25 -11.5 -52t-2.5 -97v-212h-43v478h41v-72q43 80 161 80q93 0 134 -41q30 -30 37 -83q3 -24 3 -107v-255zM293 -77q0 -36 -7 -53.5t-29 -38.5l-32 -30l-29 29q15 13 34 31q14 12 17.5 23
t3.5 38v34h42v-33z" />
    <glyph glyph-name="Ncaron" unicode="&#x147;" horiz-adv-x="651" 
d="M553 0h-56l-356 606v-606h-43v667h54l358 -605v605h43v-667zM478 862l-133 -129h-41l-132 129h51l101 -100l102 100h52z" />
    <glyph glyph-name="ncaron" unicode="&#x148;" horiz-adv-x="536" 
d="M460 0h-43v247q0 88 -4 114q-6 36 -27 55q-30 29 -101 29q-115 0 -144 -84q-9 -25 -11.5 -52t-2.5 -97v-212h-43v478h41v-72q43 80 161 80q93 0 134 -41q30 -30 37 -83q3 -24 3 -107v-255zM425 667l-133 -129h-41l-132 129h51l101 -100l102 100h52z" />
    <glyph glyph-name="Eng" unicode="&#x14a;" horiz-adv-x="651" 
d="M322 -191v39q29 -2 46 -2q142 0 142 124v30l-369 606v-606h-43v667h54l358 -584v584h43v-698q0 -89 -61 -131q-46 -32 -122 -32q-24 0 -48 3z" />
    <glyph glyph-name="eng" unicode="&#x14b;" horiz-adv-x="536" 
d="M298 -194q-18 0 -38 3v38q20 -2 37 -2q64 0 98 34q22 22 22 81v40v247q0 88 -4 114q-6 36 -27 55q-30 29 -101 29q-115 0 -144 -84q-9 -25 -11.5 -52t-2.5 -97v-212h-43v478h41v-72q43 80 161 80q93 0 134 -41q30 -30 37 -83q3 -24 3 -107v-255v-51q0 -78 -50 -114
q-41 -29 -112 -29z" />
    <glyph glyph-name="Omacron" unicode="&#x14c;" horiz-adv-x="665" 
d="M582 334q0 -87 -1.5 -118t-5.5 -61q-14 -82 -64 -119q-57 -44 -179 -44t-179 44q-50 37 -64 119q-4 30 -5.5 61t-1.5 118t1.5 118t5.5 60q14 82 64 119q57 43 179 43t179 -43q50 -37 64 -119q4 -29 5.5 -60t1.5 -118zM538 333q0 125 -6 164q-11 71 -51 101
q-47 35 -149 35t-149 -35q-40 -30 -51 -101q-6 -39 -6 -164t6 -164q11 -70 51 -101q47 -34 149 -34t149 34q40 31 51 101q6 39 6 164zM492 807h-320v38h320v-38z" />
    <glyph glyph-name="omacron" unicode="&#x14d;" horiz-adv-x="542" 
d="M476 239q0 -85 -11 -127q-14 -59 -56 -87q-47 -32 -138 -32t-138 32q-42 28 -57 87q-10 42 -10 127t10 128q15 58 57 87q47 32 138 32t138 -32q42 -29 56 -87q11 -43 11 -128zM433 239q0 78 -8 113q-11 48 -44 69q-36 24 -110 24t-110 -24q-33 -21 -44 -69
q-8 -35 -8 -113t8 -113q11 -47 44 -69q36 -23 110 -23t110 23q33 22 44 69q8 35 8 113zM431 617h-320v38h320v-38z" />
    <glyph glyph-name="Obreve" unicode="&#x14e;" horiz-adv-x="665" 
d="M582 334q0 -87 -1.5 -118t-5.5 -61q-14 -82 -64 -119q-57 -44 -179 -44t-179 44q-50 37 -64 119q-4 30 -5.5 61t-1.5 118t1.5 118t5.5 60q14 82 64 119q57 43 179 43t179 -43q50 -37 64 -119q4 -29 5.5 -60t1.5 -118zM538 333q0 125 -6 164q-11 71 -51 101
q-47 35 -149 35t-149 -35q-40 -30 -51 -101q-6 -39 -6 -164t6 -164q11 -70 51 -101q47 -34 149 -34t149 34q40 31 51 101q6 39 6 164zM469 867q0 -73 -31 -103q-29 -28 -106 -28q-73 0 -106 28q-17 15 -24 38.5t-7 64.5h41q0 -60 19 -76q20 -17 77 -17t77 17t20 76h40z" />
    <glyph glyph-name="obreve" unicode="&#x14f;" horiz-adv-x="542" 
d="M476 239q0 -85 -11 -127q-14 -59 -56 -87q-47 -32 -138 -32t-138 32q-42 28 -57 87q-10 42 -10 127t10 128q15 58 57 87q47 32 138 32t138 -32q42 -29 56 -87q11 -43 11 -128zM433 239q0 78 -8 113q-11 48 -44 69q-36 24 -110 24t-110 -24q-33 -21 -44 -69
q-8 -35 -8 -113t8 -113q11 -47 44 -69q36 -23 110 -23t110 23q33 22 44 69q8 35 8 113zM408 667q0 -73 -31 -103q-29 -28 -106 -28q-73 0 -106 28q-17 15 -24 38.5t-7 64.5h41q0 -60 19 -76q20 -17 77 -17t77 17t20 76h40z" />
    <glyph glyph-name="Ohungarumlaut" unicode="&#x150;" horiz-adv-x="665" 
d="M582 334q0 -87 -1.5 -118t-5.5 -61q-14 -82 -64 -119q-57 -44 -179 -44t-179 44q-50 37 -64 119q-4 30 -5.5 61t-1.5 118t1.5 118t5.5 60q14 82 64 119q57 43 179 43t179 -43q50 -37 64 -119q4 -29 5.5 -60t1.5 -118zM538 333q0 125 -6 164q-11 71 -51 101
q-47 35 -149 35t-149 -35q-40 -30 -51 -101q-6 -39 -6 -164t6 -164q11 -70 51 -101q47 -34 149 -34t149 34q40 31 51 101q6 39 6 164zM543 862l-126 -126h-53l127 126h52zM374 862l-126 -126h-53l127 126h52z" />
    <glyph glyph-name="ohungarumlaut" unicode="&#x151;" horiz-adv-x="542" 
d="M476 239q0 -85 -11 -127q-14 -59 -56 -87q-47 -32 -138 -32t-138 32q-42 28 -57 87q-10 42 -10 127t10 128q15 58 57 87q47 32 138 32t138 -32q42 -29 56 -87q11 -43 11 -128zM433 239q0 78 -8 113q-11 48 -44 69q-36 24 -110 24t-110 -24q-33 -21 -44 -69
q-8 -35 -8 -113t8 -113q11 -47 44 -69q36 -23 110 -23t110 23q33 22 44 69q8 35 8 113zM482 667l-128 -126h-53l129 126h52zM314 667l-128 -126h-53l129 126h52z" />
    <glyph glyph-name="Racute" unicode="&#x154;" horiz-adv-x="644" 
d="M513 490q0 68 -26 100q-23 27 -72 34q-25 4 -106 4h-167v-270h189q71 0 99 6q43 8 62 34q21 30 21 92zM530 0l-152 232q-28 43 -38.5 56t-21.5 19q-9 6 -22 8t-43 2h-111v-317h-44v667h215q93 0 125 -5q59 -10 86 -46q32 -41 32 -129q0 -94 -45 -133q-43 -36 -136 -37
l209 -317h-54zM404 860l-133 -129h-51l130 129h54z" />
    <glyph glyph-name="racute" unicode="&#x155;" horiz-adv-x="433" 
d="M421 349h-40q0 57 -34 79q-26 17 -78 17q-104 0 -130 -88q-8 -26 -10 -51.5t-2 -98.5v-207h-43v478h41v-70q42 78 148 78q148 0 148 -137zM343 667l-133 -129h-51l130 129h54z" />
    <glyph glyph-name="Rcommaaccent" unicode="&#x156;" horiz-adv-x="644" 
d="M513 490q0 68 -26 100q-23 27 -72 34q-25 4 -106 4h-167v-270h189q71 0 99 6q43 8 62 34q21 30 21 92zM530 0l-152 232q-28 43 -38.5 56t-21.5 19q-9 6 -22 8t-43 2h-111v-317h-44v667h215q93 0 125 -5q59 -10 86 -46q32 -41 32 -129q0 -94 -45 -133q-43 -36 -136 -37
l209 -317h-54zM338 -77q0 -36 -7 -53.5t-29 -38.5l-32 -30l-29 29q15 13 34 31q14 12 17.5 23t3.5 38v34h42v-33z" />
    <glyph glyph-name="rcommaaccent" unicode="&#x157;" horiz-adv-x="433" 
d="M421 349h-40q0 57 -34 79q-26 17 -78 17q-104 0 -130 -88q-8 -26 -10 -51.5t-2 -98.5v-207h-43v478h41v-70q42 78 148 78q148 0 148 -137zM126 -77q0 -36 -7 -53.5t-29 -38.5l-32 -30l-29 29q15 13 34 31q14 12 17.5 23t3.5 38v34h42v-33z" />
    <glyph glyph-name="Rcaron" unicode="&#x158;" horiz-adv-x="644" 
d="M513 490q0 68 -26 100q-23 27 -72 34q-25 4 -106 4h-167v-270h189q71 0 99 6q43 8 62 34q21 30 21 92zM530 0l-152 232q-28 43 -38.5 56t-21.5 19q-9 6 -22 8t-43 2h-111v-317h-44v667h215q93 0 125 -5q59 -10 86 -46q32 -41 32 -129q0 -94 -45 -133q-43 -36 -136 -37
l209 -317h-54zM455 862l-133 -129h-41l-132 129h51l101 -100l102 100h52z" />
    <glyph glyph-name="rcaron" unicode="&#x159;" horiz-adv-x="433" 
d="M421 349h-40q0 57 -34 79q-26 17 -78 17q-104 0 -130 -88q-8 -26 -10 -51.5t-2 -98.5v-207h-43v478h41v-70q42 78 148 78q148 0 148 -137zM406 667l-133 -129h-41l-132 129h51l101 -100l102 100h52z" />
    <glyph glyph-name="Sacute" unicode="&#x15a;" horiz-adv-x="636" 
d="M566 192q0 -121 -78 -166q-57 -34 -169 -34q-127 0 -181 35q-64 42 -64 143h42q1 -93 70 -120q40 -16 135 -16q108 0 152 32q49 36 49 123q0 65 -26 96q-23 25 -72 32q-20 3 -105 4q-91 1 -123 7q-59 9 -88 42q-34 39 -34 118q0 119 77 159q52 27 166 27q127 0 180 -35
q63 -41 63 -142h-41q-1 92 -70 120q-40 16 -134 16q-68 0 -103 -8q-47 -10 -69 -39q-26 -33 -26 -97q0 -63 29 -93q23 -24 73 -30q17 -2 101 -4q89 -1 123 -7q60 -11 89 -44q34 -40 34 -119zM414 860l-133 -129h-51l130 129h54z" />
    <glyph glyph-name="sacute" unicode="&#x15b;" horiz-adv-x="501" 
d="M441 135q0 -81 -55 -115q-47 -28 -141 -27q-107 1 -148 35q-37 31 -37 103h40q0 -60 35 -80q31 -18 109 -18q88 0 123 26q31 23 31 74q0 49 -22 66q-20 15 -76 20l-119 7q-58 6 -83 29q-31 27 -31 93q0 82 54 113q45 26 141 25q107 0 147 -41q31 -33 31 -96h-41
q0 55 -33 77q-31 20 -103 20q-89 0 -122 -23q-30 -21 -31 -67q-1 -50 16.5 -66.5t77.5 -22.5l119 -8q60 -6 85 -29q33 -28 33 -95zM342 667l-133 -129h-51l130 129h54z" />
    <glyph glyph-name="Scircumflex" unicode="&#x15c;" horiz-adv-x="636" 
d="M566 192q0 -121 -78 -166q-57 -34 -169 -34q-127 0 -181 35q-64 42 -64 143h42q1 -93 70 -120q40 -16 135 -16q108 0 152 32q49 36 49 123q0 65 -26 96q-23 25 -72 32q-20 3 -105 4q-91 1 -123 7q-59 9 -88 42q-34 39 -34 118q0 119 77 159q52 27 166 27q127 0 180 -35
q63 -41 63 -142h-41q-1 92 -70 120q-40 16 -134 16q-68 0 -103 -8q-47 -10 -69 -39q-26 -33 -26 -97q0 -63 29 -93q23 -24 73 -30q17 -2 101 -4q89 -1 123 -7q60 -11 89 -44q34 -40 34 -119zM475 731h-51l-101 100l-102 -100h-52l133 129h41z" />
    <glyph glyph-name="scircumflex" unicode="&#x15d;" horiz-adv-x="501" 
d="M441 135q0 -81 -55 -115q-47 -28 -141 -27q-107 1 -148 35q-37 31 -37 103h40q0 -60 35 -80q31 -18 109 -18q88 0 123 26q31 23 31 74q0 49 -22 66q-20 15 -76 20l-119 7q-58 6 -83 29q-31 27 -31 93q0 82 54 113q45 26 141 25q107 0 147 -41q31 -33 31 -96h-41
q0 55 -33 77q-31 20 -103 20q-89 0 -122 -23q-30 -21 -31 -67q-1 -50 16.5 -66.5t77.5 -22.5l119 -8q60 -6 85 -29q33 -28 33 -95zM408 538h-51l-101 100l-102 -100h-52l133 129h41z" />
    <glyph glyph-name="Scedilla" unicode="&#x15e;" horiz-adv-x="636" 
d="M566 192q0 -116 -73 -163q-54 -35 -158 -37v-39q65 0 65 -67q0 -40 -19 -57q-19 -16 -57 -16q-41 0 -58.5 14t-17.5 47h33q0 -19 9 -25.5t34 -6.5q24 0 32.5 9t8.5 33q0 31 -21 38q-8 3 -44 4v66q-117 2 -168 38q-58 42 -58 140h42q1 -93 70 -120q40 -16 135 -16
q108 0 152 32q49 36 49 123q0 65 -26 96q-23 25 -72 32q-20 3 -105 4q-91 1 -123 7q-59 9 -88 42q-34 39 -34 118q0 119 77 159q52 27 166 27q127 0 180 -35q63 -41 63 -142h-41q-1 92 -70 120q-40 16 -134 16q-68 0 -103 -8q-47 -10 -69 -39q-26 -33 -26 -97q0 -63 29 -93
q23 -24 73 -30q17 -2 101 -4q89 -1 123 -7q60 -11 89 -44q34 -40 34 -119z" />
    <glyph glyph-name="scedilla" unicode="&#x15f;" horiz-adv-x="501" 
d="M327 -114q0 -40 -19 -57q-19 -16 -57 -16q-41 0 -58.5 14t-17.5 47h33q0 -19 9 -25.5t34 -6.5q24 0 32.5 9t8.5 34q0 31 -23 38q-7 2 -42 3v67q-96 3 -133 38q-34 31 -34 100h40q0 -60 35 -80q31 -18 109 -18q88 0 123 26q31 23 31 74q0 49 -22 66q-20 15 -76 20l-119 7
q-58 6 -83 29q-31 27 -31 93q0 82 54 113q45 26 141 25q107 0 147 -41q31 -33 31 -96h-41q0 55 -33 77q-31 20 -103 20q-89 0 -122 -23q-30 -21 -31 -67q-1 -50 16.5 -66.5t77.5 -22.5l119 -8q60 -6 85 -29q33 -28 33 -95q0 -78 -51 -112q-42 -28 -128 -30v-40q65 0 65 -67z
" />
    <glyph glyph-name="Scaron" unicode="&#x160;" horiz-adv-x="636" 
d="M566 192q0 -121 -78 -166q-57 -34 -169 -34q-127 0 -181 35q-64 42 -64 143h42q1 -93 70 -120q40 -16 135 -16q108 0 152 32q49 36 49 123q0 65 -26 96q-23 25 -72 32q-20 3 -105 4q-91 1 -123 7q-59 9 -88 42q-34 39 -34 118q0 119 77 159q52 27 166 27q127 0 180 -35
q63 -41 63 -142h-41q-1 92 -70 120q-40 16 -134 16q-68 0 -103 -8q-47 -10 -69 -39q-26 -33 -26 -97q0 -63 29 -93q23 -24 73 -30q17 -2 101 -4q89 -1 123 -7q60 -11 89 -44q34 -40 34 -119zM475 862l-133 -129h-41l-132 129h51l101 -100l102 100h52z" />
    <glyph glyph-name="scaron" unicode="&#x161;" horiz-adv-x="501" 
d="M441 135q0 -81 -55 -115q-47 -28 -141 -27q-107 1 -148 35q-37 31 -37 103h40q0 -60 35 -80q31 -18 109 -18q88 0 123 26q31 23 31 74q0 49 -22 66q-20 15 -76 20l-119 7q-58 6 -83 29q-31 27 -31 93q0 82 54 113q45 26 141 25q107 0 147 -41q31 -33 31 -96h-41
q0 55 -33 77q-31 20 -103 20q-89 0 -122 -23q-30 -21 -31 -67q-1 -50 16.5 -66.5t77.5 -22.5l119 -8q60 -6 85 -29q33 -28 33 -95zM409 667l-133 -129h-41l-132 129h51l101 -100l102 100h52z" />
    <glyph glyph-name="Tcommaaccent" unicode="&#x162;" horiz-adv-x="536" 
d="M506 627h-216v-627h-44v627h-216v40h476v-40zM289 -77q0 -36 -7 -53.5t-29 -38.5l-32 -30l-29 29q15 13 34 31q14 12 17.5 23t3.5 38v34h42v-33z" />
    <glyph glyph-name="tcommaaccent" unicode="&#x163;" horiz-adv-x="284" 
d="M274 36v-40h-9q-87 0 -124 36q-33 33 -33 101v306h-80v39h80v189h43v-189h123v-39h-123v-306q0 -54 25.5 -75.5t90.5 -21.5h7zM211 -77q0 -36 -7 -53.5t-29 -38.5l-32 -30l-29 29q15 13 34 31q14 12 17.5 23t3.5 38v34h42v-33z" />
    <glyph glyph-name="Tcaron" unicode="&#x164;" horiz-adv-x="536" 
d="M506 627h-216v-627h-44v627h-216v40h476v-40zM421 862l-133 -129h-41l-132 129h51l101 -100l102 100h52z" />
    <glyph glyph-name="tcaron" unicode="&#x165;" horiz-adv-x="373" 
d="M379 664q0 -36 -7 -53.5t-29 -38.5l-32 -30l-29 29q15 13 34 31q14 12 17.5 23t3.5 38v34h42v-33zM274 36v-40h-9q-87 0 -124 36q-33 33 -33 101v306h-80v39h80v189h43v-189h123v-39h-123v-306q0 -54 25.5 -75.5t90.5 -21.5h7z" />
    <glyph glyph-name="Tbar" unicode="&#x166;" horiz-adv-x="536" 
d="M412 323h-122v-323h-44v323h-122v40h122v264h-216v40h476v-40h-216v-264h122v-40z" />
    <glyph glyph-name="tbar" unicode="&#x167;" horiz-adv-x="284" 
d="M28 235v39h80v165h-80v39h80v189h43v-189h123v-39h-123v-165h123v-39h-123v-102q0 -54 25.5 -75.5t90.5 -21.5h7v-40h-9q-87 0 -124 36q-33 33 -33 101v102h-80z" />
    <glyph glyph-name="Utilde" unicode="&#x168;" horiz-adv-x="649" 
d="M557 336v-64q0 -75 -6 -115q-7 -50 -25 -78q-30 -47 -82 -68q-48 -19 -120 -19q-174 0 -217 112q-16 41 -16 159l1 73v331h44v-331l-1 -88q0 -64 4 -94t15 -50q39 -70 170 -70q128 0 167 70q15 27 18.5 65.5t3.5 166.5v331h44v-331zM510 826l-53 -29q-32 -18 -67 -18
q-30 0 -55 14l-39 22q-19 9 -35 9q-18 0 -37 -11l-65 -36l-20 31l65 37q33 16 61 16t55 -15q36 -20 39 -21q19 -9 36 -9q18 0 36 10l61 32z" />
    <glyph glyph-name="utilde" unicode="&#x169;" horiz-adv-x="536" 
d="M452 0h-41v72q-44 -80 -161 -80q-93 0 -134 41q-30 30 -37 83q-3 24 -3 107v255h43v-247q0 -88 4 -114q6 -36 27 -55q30 -29 101 -29q115 0 144 84q9 25 11.5 52t2.5 97v212h43v-478zM453 635l-53 -29q-32 -18 -67 -18q-30 0 -55 14l-39 22q-19 9 -35 9q-18 0 -37 -11
l-65 -36l-20 31l65 37q33 16 61 16t55 -15q36 -20 39 -21q19 -9 36 -9q18 0 36 10l61 32z" />
    <glyph glyph-name="Umacron" unicode="&#x16a;" horiz-adv-x="649" 
d="M557 336v-64q0 -75 -6 -115q-7 -50 -25 -78q-30 -47 -82 -68q-48 -19 -120 -19q-174 0 -217 112q-16 41 -16 159l1 73v331h44v-331l-1 -88q0 -64 4 -94t15 -50q39 -70 170 -70q128 0 167 70q15 27 18.5 65.5t3.5 166.5v331h44v-331zM484 807h-320v38h320v-38z" />
    <glyph glyph-name="umacron" unicode="&#x16b;" horiz-adv-x="536" 
d="M452 0h-41v72q-44 -80 -161 -80q-93 0 -134 41q-30 30 -37 83q-3 24 -3 107v255h43v-247q0 -88 4 -114q6 -36 27 -55q30 -29 101 -29q115 0 144 84q9 25 11.5 52t2.5 97v212h43v-478zM428 617h-320v38h320v-38z" />
    <glyph glyph-name="Ubreve" unicode="&#x16c;" horiz-adv-x="649" 
d="M557 336v-64q0 -75 -6 -115q-7 -50 -25 -78q-30 -47 -82 -68q-48 -19 -120 -19q-174 0 -217 112q-16 41 -16 159l1 73v331h44v-331l-1 -88q0 -64 4 -94t15 -50q39 -70 170 -70q128 0 167 70q15 27 18.5 65.5t3.5 166.5v331h44v-331zM461 867q0 -73 -31 -103
q-29 -28 -106 -28q-73 0 -106 28q-17 15 -24 38.5t-7 64.5h41q0 -60 19 -76q20 -17 77 -17t77 17t20 76h40z" />
    <glyph glyph-name="ubreve" unicode="&#x16d;" horiz-adv-x="536" 
d="M452 0h-41v72q-44 -80 -161 -80q-93 0 -134 41q-30 30 -37 83q-3 24 -3 107v255h43v-247q0 -88 4 -114q6 -36 27 -55q30 -29 101 -29q115 0 144 84q9 25 11.5 52t2.5 97v212h43v-478zM405 667q0 -73 -31 -103q-29 -28 -106 -28q-73 0 -106 28q-17 15 -24 38.5t-7 64.5h41
q0 -60 19 -76q20 -17 77 -17t77 17t20 76h40z" />
    <glyph glyph-name="Uring" unicode="&#x16e;" horiz-adv-x="649" 
d="M557 336v-64q0 -75 -6 -115q-7 -50 -25 -78q-30 -47 -82 -68q-48 -19 -120 -19q-174 0 -217 112q-16 41 -16 159l1 73v331h44v-331l-1 -88q0 -64 4 -94t15 -50q39 -70 170 -70q128 0 167 70q15 27 18.5 65.5t3.5 166.5v331h44v-331zM325 685q-65 0 -91 29q-22 25 -22 82
q0 67 28 90q24 20 83 20q65 0 91 -29q22 -25 22 -82q0 -67 -28 -90q-24 -20 -83 -20zM325 719q48 0 62 19q11 15 11 58q0 47 -17 62q-16 14 -58 14q-48 0 -62 -19q-11 -15 -11 -58q0 -47 17 -62q16 -14 58 -14z" />
    <glyph glyph-name="uring" unicode="&#x16f;" horiz-adv-x="536" 
d="M452 0h-41v72q-44 -80 -161 -80q-93 0 -134 41q-30 30 -37 83q-3 24 -3 107v255h43v-247q0 -88 4 -114q6 -36 27 -55q30 -29 101 -29q115 0 144 84q9 25 11.5 52t2.5 97v212h43v-478zM371 625q0 -65 -24 -89q-23 -23 -82 -23q-60 0 -83 23q-24 24 -24 89q0 33 5.5 52
t18.5 32q24 24 83 24q58 0 82 -24q13 -13 18.5 -32t5.5 -52zM336 624q0 48 -13 61q-13 15 -58 15t-59 -15q-13 -13 -13 -61q0 -49 13 -63q14 -16 59 -16q44 0 58 16q13 14 13 63z" />
    <glyph glyph-name="Uhungarumlaut" unicode="&#x170;" horiz-adv-x="649" 
d="M557 336v-64q0 -75 -6 -115q-7 -50 -25 -78q-30 -47 -82 -68q-48 -19 -120 -19q-174 0 -217 112q-16 41 -16 159l1 73v331h44v-331l-1 -88q0 -64 4 -94t15 -50q39 -70 170 -70q128 0 167 70q15 27 18.5 65.5t3.5 166.5v331h44v-331zM540 862l-126 -126h-53l127 126h52z
M371 862l-126 -126h-53l127 126h52z" />
    <glyph glyph-name="uhungarumlaut" unicode="&#x171;" horiz-adv-x="536" 
d="M452 0h-41v72q-44 -80 -161 -80q-93 0 -134 41q-30 30 -37 83q-3 24 -3 107v255h43v-247q0 -88 4 -114q6 -36 27 -55q30 -29 101 -29q115 0 144 84q9 25 11.5 52t2.5 97v212h43v-478zM475 667l-128 -126h-53l129 126h52zM307 667l-128 -126h-53l129 126h52z" />
    <glyph glyph-name="Uogonek" unicode="&#x172;" horiz-adv-x="649" 
d="M349 -7q-6 -1 -25 -1q-174 0 -217 112q-16 41 -16 159l1 73v331h44v-331l-1 -88q0 -64 4 -94t15 -50q39 -70 170 -70q128 0 167 70q15 27 18.5 65.5t3.5 166.5v331h44v-331v-64q0 -78 -7 -121.5t-24 -71.5q-15 -25 -37 -42t-68 -38q-48 -23 -65 -40q-23 -24 -23 -62
q0 -60 73 -60q10 0 30 2v-31q-20 -3 -38 -3q-51 0 -77 24q-26 23 -26 66q0 32 14.5 58.5t39.5 39.5z" />
    <glyph glyph-name="uogonek" unicode="&#x173;" horiz-adv-x="536" 
d="M452 0q-52 -19 -74 -47q-19 -23 -19 -56q0 -61 75 -61q10 0 30 2v-30q-19 -3 -38 -3q-51 0 -77 24q-26 23 -26 66q0 82 88 119v58q-44 -80 -161 -80q-93 0 -134 41q-30 30 -37 83q-3 24 -3 107v255h43v-247q0 -88 4 -114q6 -36 27 -55q30 -29 101 -29q115 0 144 84
q9 25 11.5 52t2.5 97v212h43v-478z" />
    <glyph glyph-name="Wcircumflex" unicode="&#x174;" horiz-adv-x="872" 
d="M822 667l-166 -667h-53l-167 609l-168 -609h-54l-164 667h45l148 -605l167 605h53l167 -605l149 605h43zM591 731h-51l-101 100l-102 -100h-52l133 129h41z" />
    <glyph glyph-name="wcircumflex" unicode="&#x175;" horiz-adv-x="693" 
d="M664 478l-142 -478h-50l-125 425l-126 -425h-50l-142 478h45l123 -423l126 423h48l127 -423l122 423h44zM499 538h-51l-101 100l-102 -100h-52l133 129h41z" />
    <glyph glyph-name="Ycircumflex" unicode="&#x176;" horiz-adv-x="521" 
d="M510 667l-229 -373v-294h-43v294l-227 373h49l202 -331l200 331h48zM415 731h-51l-101 100l-102 -100h-52l133 129h41z" />
    <glyph glyph-name="ycircumflex" unicode="&#x177;" horiz-adv-x="536" 
d="M410 68q-45 -76 -160 -76q-93 0 -134 41q-30 30 -37 83q-3 24 -3 107v255h43v-247q0 -88 4 -114q6 -36 27 -55q30 -29 101 -29q115 0 144 84q9 25 11.5 52t2.5 97v212h43v-435q0 -58 -4.5 -90t-16.5 -58q-23 -48 -78 -71q-42 -18 -97 -18q-93 0 -136 37q-40 34 -40 101
h41q0 -54 36 -77q32 -21 96 -21q51 0 86 16q37 17 53 50q11 24 14.5 53t3.5 103zM416 538h-51l-101 100l-102 -100h-52l133 129h41z" />
    <glyph glyph-name="Zacute" unicode="&#x179;" horiz-adv-x="598" 
d="M527 0h-456v41l406 586h-406v40h456v-41l-407 -586h407v-40zM391 860l-133 -129h-51l130 129h54z" />
    <glyph glyph-name="zacute" unicode="&#x17a;" horiz-adv-x="474" 
d="M420 0h-366v38l312 401h-312v39h366v-36l-311 -401h311v-41zM329 667l-133 -129h-51l130 129h54z" />
    <glyph glyph-name="Zdotaccent" unicode="&#x17b;" horiz-adv-x="598" 
d="M527 0h-456v41l406 586h-406v40h456v-41l-407 -586h407v-40zM332 828q0 -33 -33 -33q-32 0 -32 33q0 17 7.5 24t24.5 7q33 0 33 -31z" />
    <glyph glyph-name="zdotaccent" unicode="&#x17c;" horiz-adv-x="474" 
d="M420 0h-366v38l312 401h-312v39h366v-36l-311 -401h311v-41zM270 636q0 -33 -33 -33q-32 0 -32 33q0 17 7.5 24t24.5 7q33 0 33 -31z" />
    <glyph glyph-name="Zcaron" unicode="&#x17d;" horiz-adv-x="598" 
d="M527 0h-456v41l406 586h-406v40h456v-41l-407 -586h407v-40zM452 862l-133 -129h-41l-132 129h51l101 -100l102 100h52z" />
    <glyph glyph-name="zcaron" unicode="&#x17e;" horiz-adv-x="474" 
d="M420 0h-366v38l312 401h-312v39h366v-36l-311 -401h311v-41zM393 667l-133 -129h-41l-132 129h51l101 -100l102 100h52z" />
    <glyph glyph-name="uni018F" unicode="&#x18f;" horiz-adv-x="665" 
d="M82 518q16 84 72 120q57 36 170 36q122 0 179 -43q50 -37 64 -119q4 -29 5.5 -60t1.5 -118t-1.5 -118t-5.5 -61q-14 -82 -64 -119q-57 -44 -179 -44t-179 44q-50 37 -64 119q-4 30 -5.5 61t-1.5 118v29h44h412q0 105 -9 147q-12 64 -54 92q-46 31 -143 31
q-103 0 -149 -36q-37 -28 -49 -87zM324 34q101 0 147 33q41 30 52 98q7 40 7 158h-412q0 -118 7 -158q11 -68 52 -98q46 -33 147 -33z" />
    <glyph glyph-name="uni01DD" unicode="&#x1dd;" horiz-adv-x="530" 
d="M66 244h355q0 76 -8 111q-12 46 -44 67q-36 23 -108 23q-70 0 -105 -20q-42 -24 -42 -77h-40q0 138 188 138q86 0 131 -28q42 -26 58 -82q13 -46 13 -135q0 -88 -12 -134q-16 -58 -57 -85q-45 -29 -130 -29q-87 0 -132 30q-41 27 -55 85q-12 46 -12 136zM108 205
q0 -99 37 -136q35 -36 120 -36q94 0 129 48q27 38 27 124h-313z" />
    <glyph glyph-name="Aringacute" unicode="&#x1fa;" horiz-adv-x="607" 
d="M582 0h-47l-78 204h-308l-77 -204h-45l237 622q-41 8 -58 37q-14 24 -14 71q0 67 28 90q24 20 83 20q65 0 91 -29q22 -25 22 -82q0 -56 -18 -80q-17 -22 -54 -28zM442 242l-138 373l-140 -373h278zM305 653q48 0 62 19q11 15 11 58q0 47 -17 62q-16 14 -58 14
q-48 0 -62 -19q-11 -15 -11 -58q0 -47 17 -62q16 -14 58 -14zM395 1021l-133 -129h-51l130 129h54z" />
    <glyph glyph-name="aringacute" unicode="&#x1fb;" horiz-adv-x="531" 
d="M455 0h-40v75q-40 -82 -178 -82q-99 0 -141 38q-38 34 -38 104q0 93 56 125q40 23 128 23h170q-1 73 -4 89q-6 38 -35 54q-34 19 -110 19q-74 0 -108 -18q-44 -24 -44 -80h-40q0 109 115 132q-16 8 -22.5 26t-6.5 53q0 64 30 87q25 20 81 20q65 0 90 -26q23 -25 23 -81
q0 -63 -30 -79q69 -15 91 -66q13 -30 13 -95v-40v-278zM343 556q0 48 -17 63q-16 15 -58 15q-48 0 -62 -19q-12 -16 -12 -59q0 -47 17 -61q15 -12 58 -12q48 0 62 17q12 14 12 56zM412 244h-174q-76 0 -105 -22q-32 -24 -32 -86q0 -60 34 -83q31 -21 99 -21q114 0 151 57
q27 39 27 131v24zM357 846l-133 -129h-51l130 129h54z" />
    <glyph glyph-name="AEacute" unicode="&#x1fc;" horiz-adv-x="901" 
d="M817 0h-365v206h-266l-135 -206h-49l440 667h375v-40h-322v-264h312v-40h-312v-283h322v-40zM452 245v368l-241 -368h241zM621 860l-133 -129h-51l130 129h54z" />
    <glyph glyph-name="aeacute" unicode="&#x1fd;" horiz-adv-x="877" 
d="M811 241h-355q0 -78 8 -113q11 -48 44 -70q36 -24 109 -24q70 0 105 20q42 24 42 77h40q0 -138 -188 -138q-158 0 -183 103q-19 -59 -86 -85q-47 -18 -109 -18q-100 0 -142 36q-38 33 -38 103q0 92 57 125q41 24 128 24h171q0 69 -5 92q-8 38 -38 54q-34 18 -108 18
t-108 -18q-44 -24 -44 -80h-40q0 85 70 118q46 21 130 21q63 0 106 -17q50 -21 65 -64q37 81 171 81q79 0 122 -24q43 -22 60 -72q16 -45 16 -125v-24zM769 281q0 63 -13 97q-14 36 -47 52q-34 16 -96 16q-95 0 -128 -44q-28 -37 -28 -121h312zM414 242h-175q-75 0 -105 -23
q-33 -24 -33 -86q0 -59 35 -81q30 -20 99 -20q80 0 121 26q36 23 49 72q9 37 9 112zM552 667l-133 -129h-51l130 129h54z" />
    <glyph glyph-name="Oslashacute" unicode="&#x1fe;" horiz-adv-x="664" 
d="M582 330q-2 -122 -10 -171q-8 -58 -31 -91q-30 -43 -86 -61q-50 -17 -127 -16q-18 0 -54 4l-30 -136l-39 8l30 134q-86 16 -121 75q-19 29 -26 73t-7 126q0 26 1 61q1 125 8 172q9 58 32 91q28 42 85 60q50 16 129 15q26 0 53 -3l30 133l39 -9l-29 -130q81 -15 120 -75
q18 -30 25.5 -75t7.5 -129v-56zM538 329v52q0 87 -6 125t-23 64q-30 44 -90 54l-136 -590q15 -1 45 -1q75 -1 118 16q36 13 56 42t27 74.5t9 163.5zM380 631q-30 2 -44 2q-76 1 -119 -16q-37 -14 -57 -43t-27 -75t-9 -165v-48q0 -88 6 -126t24 -65q30 -44 90 -54zM418 860
l-133 -129h-51l130 129h54z" />
    <glyph glyph-name="oslashacute" unicode="&#x1ff;" horiz-adv-x="542" 
d="M476 237q-1 -89 -15 -136q-17 -56 -60 -82q-46 -27 -134 -26q-28 0 -60 5l-33 -93l-38 13l32 90q-67 24 -89 90q-13 40 -13 115v28q1 85 12 127q15 59 56 87q48 32 139 31q30 0 60 -5l32 91l38 -13l-31 -88q68 -24 90 -94q14 -42 14 -119v-21zM433 238q1 24 1 32
q0 66 -14 102q-18 45 -62 60l-138 -395q28 -4 47 -4q74 -1 111 22q33 21 45 69q9 36 10 114zM319 442q-21 3 -46 3q-73 0 -110 -23q-33 -21 -44 -69q-9 -35 -9 -113l-1 -44q0 -62 14 -95q18 -40 59 -54zM358 667l-133 -129h-51l130 129h54z" />
    <glyph glyph-name="Scommaaccent" unicode="&#x218;" horiz-adv-x="636" 
d="M566 192q0 -121 -78 -166q-57 -34 -169 -34q-127 0 -181 35q-64 42 -64 143h42q1 -93 70 -120q40 -16 135 -16q108 0 152 32q49 36 49 123q0 65 -26 96q-23 25 -72 32q-20 3 -105 4q-91 1 -123 7q-59 9 -88 42q-34 39 -34 118q0 119 77 159q52 27 166 27q127 0 180 -35
q63 -41 63 -142h-41q-1 92 -70 120q-40 16 -134 16q-68 0 -103 -8q-47 -10 -69 -39q-26 -33 -26 -97q0 -63 29 -93q23 -24 73 -30q17 -2 101 -4q89 -1 123 -7q60 -11 89 -44q34 -40 34 -119zM338 -77q0 -36 -7 -53.5t-29 -38.5l-32 -30l-29 29q15 13 34 31q14 12 17.5 23
t3.5 38v34h42v-33z" />
    <glyph glyph-name="scommaaccent" unicode="&#x219;" horiz-adv-x="501" 
d="M441 135q0 -81 -55 -115q-47 -28 -141 -27q-107 1 -148 35q-37 31 -37 103h40q0 -60 35 -80q31 -18 109 -18q88 0 123 26q31 23 31 74q0 49 -22 66q-20 15 -76 20l-119 7q-58 6 -83 29q-31 27 -31 93q0 82 54 113q45 26 141 25q107 0 147 -41q31 -33 31 -96h-41
q0 55 -33 77q-31 20 -103 20q-89 0 -122 -23q-30 -21 -31 -67q-1 -50 16.5 -66.5t77.5 -22.5l119 -8q60 -6 85 -29q33 -28 33 -95zM264 -77q0 -36 -7 -53.5t-29 -38.5l-32 -30l-29 29q15 13 34 31q14 12 17.5 23t3.5 38v34h42v-33z" />
    <glyph glyph-name="uni021A" unicode="&#x21a;" horiz-adv-x="536" 
d="M506 627h-216v-627h-44v627h-216v40h476v-40zM289 -77q0 -36 -7 -53.5t-29 -38.5l-32 -30l-29 29q15 13 34 31q14 12 17.5 23t3.5 38v34h42v-33z" />
    <glyph glyph-name="uni021B" unicode="&#x21b;" horiz-adv-x="284" 
d="M274 36v-40h-9q-87 0 -124 36q-33 33 -33 101v306h-80v39h80v189h43v-189h123v-39h-123v-306q0 -54 25.5 -75.5t90.5 -21.5h7zM211 -77q0 -36 -7 -53.5t-29 -38.5l-32 -30l-29 29q15 13 34 31q14 12 17.5 23t3.5 38v34h42v-33z" />
    <glyph glyph-name="uni0259" unicode="&#x259;" horiz-adv-x="530" 
d="M66 244h355q0 76 -8 111q-12 46 -44 67q-36 23 -108 23q-70 0 -105 -20q-42 -24 -42 -77h-40q0 138 188 138q86 0 131 -28q42 -26 58 -82q13 -46 13 -135q0 -88 -12 -134q-16 -58 -57 -85q-45 -29 -130 -29q-87 0 -132 30q-41 27 -55 85q-12 46 -12 136zM108 205
q0 -99 37 -136q35 -36 120 -36q94 0 129 48q27 38 27 124h-313z" />
    <glyph glyph-name="uni02C9" unicode="&#x2c9;" horiz-adv-x="415" 
d="M368 617h-320v38h320v-38z" />
    <glyph glyph-name="uni037E" unicode="&#x37e;" horiz-adv-x="208" 
d="M139 452q0 -34 -35 -34q-34 0 -34 34t34 34q35 0 35 -34zM126 -15q0 -47 -8.5 -71t-33.5 -45l-25 -22l-27 27l19 18q21 19 27 36.5t6 56.5v75h42v-75z" />
    <glyph glyph-name="tonos" unicode="&#x384;" horiz-adv-x="604" 
d="M322 541h-41v176h41v-176z" />
    <glyph glyph-name="dieresistonos" unicode="&#x385;" horiz-adv-x="604" 
d="M466 629q0 -40 -40 -40t-40 40t40 40t40 -40zM217 629q0 -40 -40 -40t-40 40t40 40t40 -40zM322 541h-41v176h41v-176z" />
    <glyph glyph-name="Alphatonos" unicode="&#x386;" horiz-adv-x="607" 
d="M581 0h-47l-78 204h-308l-77 -204h-45l254 667h46zM441 242l-138 373l-140 -373h278zM178 541h-41v176h41v-176z" />
    <glyph glyph-name="uni0387" unicode="&#x387;" horiz-adv-x="209" 
d="M139 335q0 -34 -35 -34q-34 0 -34 34t34 34q35 0 35 -34z" />
    <glyph glyph-name="Epsilontonos" unicode="&#x388;" horiz-adv-x="599" 
d="M515 0h-401v667h401v-40h-356v-264h346v-40h-346v-283h356v-40zM61 541h-41v176h41v-176z" />
    <glyph glyph-name="Etatonos" unicode="&#x389;" horiz-adv-x="669" 
d="M571 0h-44v323h-369v-323h-44v667h44v-304h369v304h44v-667zM61 541h-41v176h41v-176z" />
    <glyph glyph-name="Iotatonos" unicode="&#x38a;" horiz-adv-x="256" 
d="M158 0h-44v667h44v-667zM61 541h-41v176h41v-176z" />
    <glyph glyph-name="Omicrontonos" unicode="&#x38c;" horiz-adv-x="675" 
d="M593 334q0 -87 -1.5 -118t-5.5 -61q-14 -82 -64 -119q-57 -44 -179 -44t-179 44q-50 37 -64 119q-4 30 -5.5 61t-1.5 118t1.5 118t5.5 60q14 82 64 119q57 43 179 43t179 -43q50 -37 64 -118q4 -30 5.5 -60.5t1.5 -118.5zM549 333q0 125 -6 164q-11 71 -51 101
q-47 35 -149 35t-149 -35q-40 -30 -51 -101q-6 -39 -6 -164t6 -164q11 -70 51 -101q47 -34 149 -34t149 34q40 31 51 101q6 39 6 164zM61 541h-41v176h41v-176z" />
    <glyph glyph-name="Upsilontonos" unicode="&#x38e;" horiz-adv-x="598" 
d="M587 667l-229 -373v-294h-43v294l-227 373h49l202 -331l200 331h48zM61 541h-41v176h41v-176z" />
    <glyph glyph-name="Omegatonos" unicode="&#x38f;" horiz-adv-x="678" 
d="M596 0h-191v40q42 5 69 18.5t44 38.5q20 30 26.5 76t6.5 163q0 125 -6 163q-11 70 -51 100q-47 34 -149 34t-149 -34q-40 -30 -51 -100q-6 -38 -6 -163q0 -115 6.5 -161.5t27.5 -77.5q17 -25 44 -38.5t69 -18.5v-40h-191v40h86q-43 23 -63 65q-17 36 -21 98q-2 31 -2 134
q0 87 1.5 117.5t5.5 60.5q14 80 64 117q57 42 179 42t179 -42q50 -37 64 -117q4 -30 5.5 -60.5t1.5 -117.5q0 -105 -2 -134q-4 -62 -21 -98q-19 -42 -62 -65h86v-40zM61 541h-41v176h41v-176z" />
    <glyph glyph-name="iotadieresistonos" unicode="&#x390;" horiz-adv-x="226" 
d="M126 541h-41v176h41v-176zM250 629q0 -33 -33 -33q-32 0 -32 33q0 17 7.5 24t24.5 7q33 0 33 -31zM26 629q0 -33 -33 -33q-32 0 -32 33q0 17 7.5 24t24.5 7q33 0 33 -31zM183 0h-10q-48 0 -69 22q-20 21 -20 71v385h43v-383q0 -33 10 -44t40 -11h6v-40z" />
    <glyph glyph-name="Alpha" unicode="&#x391;" horiz-adv-x="607" 
d="M581 0h-47l-78 204h-308l-77 -204h-45l254 667h46zM441 242l-138 373l-140 -373h278z" />
    <glyph glyph-name="Beta" unicode="&#x392;" horiz-adv-x="646" 
d="M562 183q0 -86 -31 -128q-26 -37 -84 -48q-36 -7 -126 -7h-223v667h217q90 0 121 -5q59 -9 87 -42q33 -40 33 -123q0 -129 -84 -154q47 -13 68.5 -51.5t21.5 -108.5zM513 500q0 86 -49 112q-31 16 -107 16h-49h-167v-267h174q76 0 104 4q47 8 69 36q25 32 25 99zM518 180
q0 71 -24 103q-21 28 -69 36q-27 4 -111 4h-173v-283h173q85 0 109 3q49 7 70 35q25 32 25 102z" />
    <glyph glyph-name="Gamma" unicode="&#x393;" horiz-adv-x="509" 
d="M98 667h396v-40h-352v-627h-44v667z" />
    <glyph glyph-name="uni0394" unicode="&#x394;" horiz-adv-x="607" 
d="M86 40h433l-216 575zM26 0l254 667h46l255 -667h-555z" />
    <glyph glyph-name="Epsilon" unicode="&#x395;" horiz-adv-x="583" 
d="M499 0h-401v667h401v-40h-356v-264h346v-40h-346v-283h356v-40z" />
    <glyph glyph-name="Zeta" unicode="&#x396;" horiz-adv-x="598" 
d="M527 0h-456v41l406 586h-406v40h456v-41l-407 -586h407v-40z" />
    <glyph glyph-name="Eta" unicode="&#x397;" horiz-adv-x="653" 
d="M555 0h-44v323h-369v-323h-44v667h44v-304h369v304h44v-667z" />
    <glyph glyph-name="Theta" unicode="&#x398;" horiz-adv-x="665" 
d="M582 334q0 -87 -1.5 -118t-5.5 -61q-14 -82 -64 -119q-57 -44 -179 -44t-179 44q-50 37 -64 119q-4 30 -5.5 61t-1.5 118t1.5 118t5.5 60q14 82 64 119q57 43 179 43t179 -43q50 -37 64 -118q4 -30 5.5 -60.5t1.5 -118.5zM538 333q0 125 -6 164q-11 71 -51 101
q-47 35 -149 35t-149 -35q-40 -30 -51 -101q-6 -39 -6 -164t6 -164q11 -70 51 -101q47 -34 149 -34t149 34q40 31 51 101q6 39 6 164zM453 363v-40h-241v40h241z" />
    <glyph glyph-name="Iota" unicode="&#x399;" horiz-adv-x="240" 
d="M142 0h-44v667h44v-667z" />
    <glyph glyph-name="Kappa" unicode="&#x39a;" horiz-adv-x="572" 
d="M548 0h-65l-341 314v-314h-44v667h43v-315l345 315h61l-368 -332z" />
    <glyph glyph-name="Lambda" unicode="&#x39b;" horiz-adv-x="607" 
d="M581 0h-47l-231 615l-232 -615h-45l254 667h46z" />
    <glyph glyph-name="Mu" unicode="&#x39c;" horiz-adv-x="819" 
d="M721 0h-43v605l-246 -605h-47l-245 605v-605h-42v667h59l253 -620l251 620h60v-667z" />
    <glyph glyph-name="Nu" unicode="&#x39d;" horiz-adv-x="651" 
d="M553 0h-56l-356 606v-606h-43v667h54l358 -605v605h43v-667z" />
    <glyph glyph-name="Xi" unicode="&#x39e;" horiz-adv-x="569" 
d="M84 667h401v-40h-401v40zM485 40v-40h-401v40h401zM475 363v-40h-381v40h381z" />
    <glyph glyph-name="Omicron" unicode="&#x39f;" horiz-adv-x="665" 
d="M582 334q0 -87 -1.5 -118t-5.5 -61q-14 -82 -64 -119q-57 -44 -179 -44t-179 44q-50 37 -64 119q-4 30 -5.5 61t-1.5 118t1.5 118t5.5 60q14 82 64 119q57 43 179 43t179 -43q50 -37 64 -118q4 -30 5.5 -60.5t1.5 -118.5zM538 333q0 125 -6 164q-11 71 -51 101
q-47 35 -149 35t-149 -35q-40 -30 -51 -101q-6 -39 -6 -164t6 -164q11 -70 51 -101q47 -34 149 -34t149 34q40 31 51 101q6 39 6 164z" />
    <glyph glyph-name="Pi" unicode="&#x3a0;" horiz-adv-x="653" 
d="M555 0h-44v627h-369v-627h-44v667h457v-667z" />
    <glyph glyph-name="Rho" unicode="&#x3a1;" horiz-adv-x="602" 
d="M556 488q0 -84 -31 -125q-27 -36 -85 -47q-37 -7 -127 -7h-171v-309h-44v667h215q92 0 128 -7q58 -10 84 -46q31 -41 31 -126zM512 489q0 69 -26 100q-22 28 -71 35q-25 4 -106 4h-167v-279h167q83 0 107 4q49 7 71 34q25 32 25 102z" />
    <glyph glyph-name="Sigma" unicode="&#x3a3;" horiz-adv-x="598" 
d="M527 0h-456v40l261 303l-261 284v40h456v-40h-401l260 -283l-262 -304h403v-40z" />
    <glyph glyph-name="Tau" unicode="&#x3a4;" horiz-adv-x="536" 
d="M506 627h-216v-627h-44v627h-216v40h476v-40z" />
    <glyph glyph-name="Upsilon" unicode="&#x3a5;" horiz-adv-x="521" 
d="M510 667l-229 -373v-294h-43v294l-227 373h49l202 -331l200 331h48z" />
    <glyph glyph-name="Phi" unicode="&#x3a6;" horiz-adv-x="739" 
d="M664 331q0 -96 -18 -148q-14 -41 -45 -69q-31 -27 -79 -39t-131 -14v-75h-43v75q-87 2 -136 15q-45 12 -74 38q-34 30 -48.5 79.5t-14.5 137.5q0 97 18 150q14 44 45 71t79 39t131 14v76h43v-76q87 -2 136 -15q45 -12 74 -38q34 -29 48.5 -80t14.5 -141zM620 333
q0 87 -14 132q-11 38 -37 60q-45 39 -178 39v-462q133 0 178 39q28 24 39.5 67.5t11.5 124.5zM348 102v462q-133 0 -178 -39q-28 -24 -39.5 -67.5t-11.5 -124.5q0 -87 14 -132q11 -38 37 -60q45 -39 178 -39z" />
    <glyph glyph-name="Chi" unicode="&#x3a7;" horiz-adv-x="550" 
d="M513 0h-51l-189 302l-186 -302h-50l211 337l-208 330h50l186 -297l183 297h51l-209 -330z" />
    <glyph glyph-name="Psi" unicode="&#x3a8;" horiz-adv-x="798" 
d="M713 519q0 -112 -4 -160q-6 -75 -30 -121q-28 -53 -91 -77q-62 -24 -167 -24v-137h-44v137q-119 0 -183 30q-51 24 -75 71q-24 46 -30 121q-4 48 -4 160v148h44v-147q0 -131 7.5 -184t31.5 -87q27 -40 78 -56q48 -15 131 -15v489h44v-489q94 0 144 20q41 16 65 51
q24 34 31.5 87t7.5 184v147h44v-148z" />
    <glyph glyph-name="uni03A9" unicode="&#x3a9;" horiz-adv-x="666" 
d="M584 0h-191v40q42 5 69 18.5t44 38.5q20 30 26.5 76t6.5 163q0 125 -6 163q-11 70 -51 100q-47 34 -149 34t-149 -34q-40 -30 -51 -100q-6 -38 -6 -163q0 -115 6.5 -161.5t27.5 -77.5q17 -25 44 -38.5t69 -18.5v-40h-191v40h86q-43 23 -63 65q-17 36 -21 98q-2 31 -2 134
q0 87 1.5 117.5t5.5 60.5q14 80 64 117q57 42 179 42t179 -42q50 -37 64 -117q4 -30 5.5 -60.5t1.5 -117.5q0 -105 -2 -134q-4 -62 -21 -98q-19 -42 -62 -65h86v-40z" />
    <glyph glyph-name="Iotadieresis" unicode="&#x3aa;" horiz-adv-x="240" 
d="M259 829q0 -33 -33 -33q-32 0 -32 33q0 17 7.5 24t24.5 7q33 0 33 -31zM45 829q0 -33 -33 -33q-32 0 -32 33q0 17 7.5 24t24.5 7q33 0 33 -31zM142 0h-44v667h44v-667z" />
    <glyph glyph-name="Upsilondieresis" unicode="&#x3ab;" horiz-adv-x="521" 
d="M510 667l-229 -373v-294h-43v294l-227 373h49l202 -331l200 331h48zM400 825q0 -33 -33 -33q-32 0 -32 33q0 17 7.5 24t24.5 7q33 0 33 -31zM186 825q0 -33 -33 -33q-32 0 -32 33q0 17 7.5 24t24.5 7q33 0 33 -31z" />
    <glyph glyph-name="alphatonos" unicode="&#x3ac;" horiz-adv-x="573" 
d="M510 0h-42l-24 150q-19 -56 -30 -80t-25 -39q-39 -39 -130 -39q-129 0 -168 81q-16 33 -20 87q-3 29 -3 77q0 83 10 125q13 60 51 90q45 34 130 34q90 0 130 -40q14 -15 25 -39t30 -80l24 151h42l-40 -238zM428 239q-19 78 -41 130q-18 42 -47.5 59t-84.5 17
q-94 0 -124 -62q-20 -43 -20 -144q0 -72 9 -110q11 -48 41 -71q32 -25 94 -25q55 0 84 16q30 17 48 59q22 52 41 131zM306 541h-41v176h41v-176z" />
    <glyph glyph-name="epsilontonos" unicode="&#x3ad;" horiz-adv-x="517" 
d="M268 -7q-113 0 -158 33q-44 32 -44 107q0 50 13 75q16 30 55 42q-33 14 -47.5 39.5t-14.5 68.5q0 76 51 104q44 24 145 24q191 0 191 -139h-40q0 62 -57 85q-34 13 -94 13q-90 0 -125 -24q-28 -20 -28 -65q0 -51 31.5 -70.5t115.5 -19.5h37v-38h-37q-55 0 -83 -4.5
t-44 -15.5q-27 -19 -27 -77q0 -61 45 -81q35 -16 114 -16q73 0 107 18q45 23 45 79h40q0 -83 -64 -115q-45 -23 -127 -23zM284 541h-41v176h41v-176z" />
    <glyph glyph-name="etatonos" unicode="&#x3ae;" horiz-adv-x="536" 
d="M420 445q30 -30 37 -83q3 -24 3 -107v-446h-43v438q0 88 -4 114q-6 36 -27 55q-30 29 -101 29q-107 0 -139 -70q-14 -29 -17 -72q-2 -26 -2 -84v-219h-43v384q0 33 -10 44t-40 11h-6v40h10q48 0 69 -22q16 -17 19 -46q29 44 75 61q35 14 85 14q93 0 134 -41zM292 541h-41
v176h41v-176z" />
    <glyph glyph-name="iotatonos" unicode="&#x3af;" horiz-adv-x="226" 
d="M183 0h-10q-48 0 -69 22q-20 21 -20 71v385h43v-383q0 -33 10 -44t40 -11h6v-40zM126 541h-41v176h41v-176z" />
    <glyph glyph-name="upsilondieresistonos" unicode="&#x3b0;" horiz-adv-x="528" 
d="M452 273q0 -70 -2 -124q-1 -39 -11 -64q-34 -92 -175 -92t-175 92q-10 25 -11 64q-2 54 -2 124v205h43v-205q0 -83 1 -113q2 -48 14 -71q30 -55 130 -55q99 0 130 55q12 23 14 71q1 30 1 113v205h43v-205zM285 541h-41v176h41v-176zM409 629q0 -33 -33 -33q-32 0 -32 33
q0 17 7.5 24t24.5 7q33 0 33 -31zM185 629q0 -33 -33 -33q-32 0 -32 33q0 17 7.5 24t24.5 7q33 0 33 -31z" />
    <glyph glyph-name="alpha" unicode="&#x3b1;" horiz-adv-x="573" 
d="M510 0h-42l-24 150q-19 -56 -30 -80t-25 -39q-39 -39 -130 -39q-129 0 -168 81q-16 33 -20 87q-3 29 -3 77q0 83 10 125q13 60 51 90q45 34 130 34q90 0 130 -40q14 -15 25 -39t30 -80l24 151h42l-40 -238zM428 239q-19 78 -41 130q-18 42 -47.5 59t-84.5 17
q-94 0 -124 -62q-20 -43 -20 -144q0 -72 9 -110q11 -48 41 -71q32 -25 94 -25q55 0 84 16q30 17 48 59q22 52 41 131z" />
    <glyph glyph-name="beta" unicode="&#x3b2;" horiz-adv-x="555" 
d="M439 43q-50 -50 -154 -50q-59 0 -90 12q-40 16 -69 57v-253h-43v680q0 56 2 77q5 39 19 65q39 73 171 73q105 0 151 -44q43 -41 43 -128q0 -70 -19 -105q-21 -36 -70 -54q62 -18 86 -71q19 -41 19 -112q0 -101 -46 -147zM442 185q0 52 -8 82.5t-26 48.5q-20 20 -50.5 28
t-85.5 8h-53v39h53q91 0 125 34q29 29 29 104q0 80 -37 109q-34 25 -114 25q-100 0 -129 -51q-20 -34 -20 -120v-262q0 -58 5 -86q11 -63 58 -89q36 -21 96 -21q81 0 119 36q38 37 38 115z" />
    <glyph glyph-name="gamma" unicode="&#x3b3;" horiz-adv-x="468" 
d="M266 -191h-43v191l-143 387q-10 28 -24 39.5t-37 11.5h-1v40h6q66 0 89 -60l133 -363l150 423h45l-175 -478v-191z" />
    <glyph glyph-name="delta" unicode="&#x3b4;" horiz-adv-x="542" 
d="M476 239q0 -85 -11 -127q-14 -59 -56 -87q-47 -32 -138 -32t-138 32q-42 28 -57 87q-10 42 -10 127t10 128q15 58 57 87q47 32 138 32l19 -1l-84 53q-27 17 -39 33q-16 21 -16 49q0 35 18 53q13 13 30.5 18.5t47.5 5.5h91v-38h-98q-48 0 -48 -39q0 -11 6.5 -20t22.5 -20
q3 -3 92 -60q68 -44 77 -51q41 -30 56 -54q17 -26 23.5 -64t6.5 -112zM433 239q0 78 -8 113q-11 48 -44 69q-36 24 -110 24t-110 -24q-33 -21 -44 -69q-8 -35 -8 -113t8 -113q11 -47 44 -69q36 -23 110 -23t110 23q33 22 44 69q8 35 8 113z" />
    <glyph glyph-name="epsilon" unicode="&#x3b5;" horiz-adv-x="517" 
d="M268 -7q-113 0 -158 33q-44 32 -44 107q0 50 13 75q16 30 55 42q-33 14 -47.5 39.5t-14.5 68.5q0 76 51 104q44 24 145 24q191 0 191 -139h-40q0 62 -57 85q-34 13 -94 13q-90 0 -125 -24q-28 -20 -28 -65q0 -51 31.5 -70.5t115.5 -19.5h37v-38h-37q-55 0 -83 -4.5
t-44 -15.5q-27 -19 -27 -77q0 -61 45 -81q35 -16 114 -16q73 0 107 18q45 23 45 79h40q0 -83 -64 -115q-45 -23 -127 -23z" />
    <glyph glyph-name="zeta" unicode="&#x3b6;" horiz-adv-x="555" 
d="M458 -54q0 -69 -51 -137h-49q58 76 58 134q0 42 -41 53q-17 4 -70 4q-81 0 -119 9q-55 12 -81 49q-30 42 -30 125q0 133 116 280q60 76 191 196h-248v38h304v-37q-95 -90 -137 -135q-184 -197 -184 -341q0 -100 61 -128q19 -9 45.5 -12.5t78.5 -3.5q48 0 71 -3t41 -11
q44 -21 44 -80z" />
    <glyph glyph-name="eta" unicode="&#x3b7;" horiz-adv-x="536" 
d="M420 445q30 -30 37 -83q3 -24 3 -107v-446h-43v438q0 88 -4 114q-6 36 -27 55q-30 29 -101 29q-107 0 -139 -70q-14 -29 -17 -72q-2 -26 -2 -84v-219h-43v384q0 33 -10 44t-40 11h-6v40h10q48 0 69 -22q16 -17 19 -46q29 44 75 61q35 14 85 14q93 0 134 -41z" />
    <glyph glyph-name="theta" unicode="&#x3b8;" horiz-adv-x="539" 
d="M473 333q0 -111 -3 -157.5t-13 -73.5q-36 -109 -188 -109q-81 0 -128 30q-42 27 -59 79q-10 27 -13 73.5t-3 157.5q0 127 4.5 174.5t19.5 78.5q24 48 72 70q42 18 107 18q74 0 119 -24q39 -21 60 -64q15 -31 20 -80.5t5 -172.5zM430 363q-1 145 -14 186q-15 47 -52 67
q-34 18 -95 18q-69 0 -104 -24q-29 -20 -42 -61t-14 -186h321zM430 323h-321q0 -105 4 -151.5t15 -70.5q16 -36 49 -52t92 -16q63 0 98 19q29 16 43 49q11 25 15.5 72.5t4.5 149.5z" />
    <glyph glyph-name="iota" unicode="&#x3b9;" horiz-adv-x="226" 
d="M183 0h-10q-48 0 -69 22q-20 21 -20 71v385h43v-383q0 -33 10 -44t40 -11h6v-40z" />
    <glyph glyph-name="kappa" unicode="&#x3ba;" horiz-adv-x="463" 
d="M444 0h-61l-257 232v-232h-43v478h43v-216l256 216h59l-274 -231z" />
    <glyph glyph-name="lambda" unicode="&#x3bb;" horiz-adv-x="473" 
d="M455 0h-8q-66 0 -89 60l-129 355l-152 -415h-44l176 472l-49 133q-11 29 -24 40.5t-35 11.5h-1v40h7q63 0 86 -60l200 -546q10 -28 24 -39.5t37 -11.5h1v-40z" />
    <glyph glyph-name="uni03BC" unicode="&#x3bc;" horiz-adv-x="539" 
d="M456 0h-42v73q-42 -80 -160 -80q-92 0 -128 46v-230h-43v669h43v-246v-52q0 -46 5 -71t18 -40q29 -35 107 -35q109 0 140 78q10 24 13.5 57.5t3.5 97.5v211h43v-478z" />
    <glyph glyph-name="nu" unicode="&#x3bd;" horiz-adv-x="457" 
d="M436 478l-183 -478h-48l-184 478h45l164 -429l161 429h45z" />
    <glyph glyph-name="xi" unicode="&#x3be;" horiz-adv-x="527" 
d="M329 0q-86 0 -122 7q-58 12 -86 49q-32 43 -32 129q0 72 20 111q22 45 73 61q-29 15 -45 37q-31 42 -31 117q0 108 78 148h-86v38h332v-39h-81q-55 0 -85 -5t-53 -17q-62 -33 -62 -124q0 -77 30 -106q26 -24 87 -29q15 -1 40 -1h32h81v-39h-83q-55 0 -81 -2
q-74 -6 -101 -47q-22 -34 -22 -106q0 -97 54 -125q31 -17 110 -17h34q45 0 65.5 -3t36.5 -11q40 -20 40 -80q0 -69 -51 -137h-49q58 76 58 134q0 43 -35 53q-16 4 -66 4z" />
    <glyph glyph-name="omicron" unicode="&#x3bf;" horiz-adv-x="542" 
d="M476 239q0 -85 -11 -127q-14 -59 -56 -87q-47 -32 -138 -32t-138 32q-42 28 -57 87q-10 42 -10 127t10 128q15 58 57 87q47 32 138 32t138 -32q42 -29 56 -87q11 -43 11 -128zM433 239q0 78 -8 113q-11 48 -44 69q-36 24 -110 24t-110 -24q-33 -21 -44 -69
q-8 -35 -8 -113t8 -113q11 -47 44 -69q36 -23 110 -23t110 23q33 22 44 69q8 35 8 113z" />
    <glyph glyph-name="rho" unicode="&#x3c1;" horiz-adv-x="544" 
d="M478 245v-22q0 -79 -12 -122q-15 -54 -54 -81q-44 -29 -126 -29q-67 0 -109 22q-36 18 -58 55v-261h-43v444q0 77 10 118.5t34 66.5q25 26 62.5 38t94.5 12t94.5 -12t62.5 -38q32 -32 40 -98q3 -23 4 -93zM436 245q0 78 -7 111q-11 46 -43 66q-35 22 -108 22
q-74 0 -110 -23q-32 -21 -42 -68q-7 -32 -7 -110q0 -81 16 -126q17 -45 55 -65q36 -18 102 -18q101 0 129 70q9 23 12 52.5t3 88.5z" />
    <glyph glyph-name="uni03C2" unicode="&#x3c2;" horiz-adv-x="516" 
d="M458 -54q0 -69 -51 -137h-49q58 76 58 134q0 42 -41 53q-17 4 -70 4q-75 0 -108 6q-55 10 -84 40q-31 32 -42 100q-5 36 -5 98q0 87 13 133q16 56 59 81q45 28 131 28q188 0 188 -139h-40q0 98 -147 98q-73 0 -109 -22q-33 -21 -44 -67q-8 -34 -8 -110q0 -90 12 -129
q15 -44 56 -61q38 -16 125 -16q48 0 71 -3t41 -11q44 -21 44 -80z" />
    <glyph glyph-name="sigma" unicode="&#x3c3;" horiz-adv-x="542" 
d="M510 439h-101q38 -20 52.5 -65t14.5 -140q0 -83 -11 -125q-14 -58 -56 -86q-47 -31 -138 -31t-138 31q-42 28 -57 86q-10 41 -10 125q0 79 9 119q11 49 39 77q27 27 66 37.5t111 10.5h219v-39zM433 234q0 76 -8 111q-11 47 -44 68q-36 24 -110 24t-110 -24
q-33 -21 -44 -68q-8 -35 -8 -111t8 -110q11 -47 44 -68q36 -23 110 -23t110 23q33 21 44 68q8 34 8 110z" />
    <glyph glyph-name="tau" unicode="&#x3c4;" horiz-adv-x="445" 
d="M291 0h-10q-48 0 -69 22q-20 21 -20 71v346h-166v39h389v-39h-180v-344q0 -33 10 -44t40 -11h6v-40z" />
    <glyph glyph-name="upsilon" unicode="&#x3c5;" horiz-adv-x="528" 
d="M452 273q0 -70 -2 -124q-1 -39 -11 -64q-34 -92 -175 -92t-175 92q-10 25 -11 64q-2 54 -2 124v205h43v-205q0 -83 1 -113q2 -48 14 -71q30 -55 130 -55q99 0 130 55q12 23 14 71q1 30 1 113v205h43v-205z" />
    <glyph glyph-name="phi" unicode="&#x3c6;" horiz-adv-x="669" 
d="M603 243q0 -81 -12.5 -123.5t-43.5 -69.5q-28 -24 -72.5 -36t-118.5 -14v-191h-44v191q-73 2 -117.5 14t-72.5 36q-31 27 -43.5 70.5t-12.5 123.5t12.5 123t43.5 70q42 36 120 45v-41q-58 -9 -87 -33q-25 -21 -35.5 -58.5t-10.5 -107.5q0 -69 10 -105t36 -58
q45 -38 157 -38v445q89 0 123 -5q72 -10 112 -44q31 -26 43.5 -69.5t12.5 -124.5zM560 245q0 68 -10.5 104.5t-36.5 58.5q-43 37 -157 37v-404q112 0 157 38q26 22 36.5 59.5t10.5 106.5z" />
    <glyph glyph-name="chi" unicode="&#x3c7;" horiz-adv-x="479" 
d="M455 -193h-6q-31 0 -50 11.5t-33 39.5l-132 259l-157 -308h-48l179 343l-125 241q-14 28 -25 36.5t-34 8.5v40h6q31 0 50 -11.5t33 -39.5l122 -239l148 290h48l-170 -325l135 -261q14 -28 25 -36.5t34 -8.5v-40z" />
    <glyph glyph-name="psi" unicode="&#x3c8;" horiz-adv-x="679" 
d="M603 252q0 -83 -9 -119q-10 -40 -39 -69q-37 -37 -106 -53q-45 -11 -88 -11v-191h-43v191q-52 0 -102 14q-59 17 -92 50q-29 29 -38.5 67t-9.5 121v226h43v-227q0 -70 8 -102q8 -34 29 -56q23 -25 66 -38.5t96 -13.5v437h43v-437q49 0 90 12q47 13 72 40q22 22 29.5 55
t7.5 103v227h43v-226z" />
    <glyph glyph-name="omega" unicode="&#x3c9;" horiz-adv-x="698" 
d="M632 249q0 -123 -33 -181q-42 -76 -144 -76q-81 0 -106 48q-25 -48 -106 -48q-114 0 -154 96q-23 56 -23 161q0 74 16 121q13 41 41 70q20 20 47 30.5t72 15.5v-41q-75 -9 -104 -55q-29 -44 -29 -141q0 -114 30 -164q33 -53 107 -53q57 0 72 41q9 24 9 95v98h44v-98
q0 -46 3 -68t10 -37q17 -31 68 -31q84 0 115 68q22 50 22 149q0 109 -38 153q-29 35 -95 43v41q45 -5 72 -15.5t47 -30.5q30 -31 43.5 -76.5t13.5 -114.5z" />
    <glyph glyph-name="iotadieresis" unicode="&#x3ca;" horiz-adv-x="226" 
d="M183 0h-10q-48 0 -69 22q-20 21 -20 71v385h43v-383q0 -33 10 -44t40 -11h6v-40zM245 629q0 -33 -33 -33q-32 0 -32 33q0 17 7.5 24t24.5 7q33 0 33 -31zM31 629q0 -33 -33 -33q-32 0 -32 33q0 17 7.5 24t24.5 7q33 0 33 -31z" />
    <glyph glyph-name="upsilondieresis" unicode="&#x3cb;" horiz-adv-x="528" 
d="M452 273q0 -70 -2 -124q-1 -39 -11 -64q-34 -92 -175 -92t-175 92q-10 25 -11 64q-2 54 -2 124v205h43v-205q0 -83 1 -113q2 -48 14 -71q30 -55 130 -55q99 0 130 55q12 23 14 71q1 30 1 113v205h43v-205zM404 629q0 -33 -33 -33q-32 0 -32 33q0 17 7.5 24t24.5 7
q33 0 33 -31zM190 629q0 -33 -33 -33q-32 0 -32 33q0 17 7.5 24t24.5 7q33 0 33 -31z" />
    <glyph glyph-name="omicrontonos" unicode="&#x3cc;" horiz-adv-x="542" 
d="M476 239q0 -85 -11 -127q-14 -59 -56 -87q-47 -32 -138 -32t-138 32q-42 28 -57 87q-10 42 -10 127t10 128q15 58 57 87q47 32 138 32t138 -32q42 -29 56 -87q11 -43 11 -128zM433 239q0 78 -8 113q-11 48 -44 69q-36 24 -110 24t-110 -24q-33 -21 -44 -69
q-8 -35 -8 -113t8 -113q11 -47 44 -69q36 -23 110 -23t110 23q33 22 44 69q8 35 8 113zM292 541h-41v176h41v-176z" />
    <glyph glyph-name="upsilontonos" unicode="&#x3cd;" horiz-adv-x="528" 
d="M452 273q0 -70 -2 -124q-1 -39 -11 -64q-34 -92 -175 -92t-175 92q-10 25 -11 64q-2 54 -2 124v205h43v-205q0 -83 1 -113q2 -48 14 -71q30 -55 130 -55q99 0 130 55q12 23 14 71q1 30 1 113v205h43v-205zM284 541h-41v176h41v-176z" />
    <glyph glyph-name="omegatonos" unicode="&#x3ce;" horiz-adv-x="698" 
d="M632 249q0 -123 -33 -181q-42 -76 -144 -76q-81 0 -106 48q-25 -48 -106 -48q-114 0 -154 96q-23 56 -23 161q0 74 16 121q13 41 41 70q20 20 47 30.5t72 15.5v-41q-75 -9 -104 -55q-29 -44 -29 -141q0 -114 30 -164q33 -53 107 -53q57 0 72 41q9 24 9 95v98h44v-98
q0 -46 3 -68t10 -37q17 -31 68 -31q84 0 115 68q22 50 22 149q0 109 -38 153q-29 35 -95 43v41q45 -5 72 -15.5t47 -30.5q30 -31 43.5 -76.5t13.5 -114.5zM370 541h-41v176h41v-176z" />
    <glyph glyph-name="uni0400" unicode="&#x400;" horiz-adv-x="583" 
d="M499 0h-401v667h401v-40h-356v-264h346v-40h-346v-283h356v-40zM374 731h-51l-133 129h54z" />
    <glyph glyph-name="afii10023" unicode="&#x401;" horiz-adv-x="583" 
d="M499 0h-401v667h401v-40h-356v-264h346v-40h-346v-283h356v-40zM438 829q0 -33 -33 -33q-32 0 -32 33q0 17 7.5 24t24.5 7q33 0 33 -31zM224 829q0 -33 -33 -33q-32 0 -32 33q0 17 7.5 24t24.5 7q33 0 33 -31z" />
    <glyph glyph-name="afii10051" unicode="&#x402;" horiz-adv-x="699" 
d="M624 154q0 -143 -11 -203q-15 -77 -59 -108q-46 -33 -145 -33v41q83 0 119 28q35 27 45 96q7 46 7 179q0 67 -6 98q-9 43 -32 66q-37 37 -118 37q-52 0 -91 -9.5t-78 -32.5v-313h-44v627h-179v40h442v-40h-219v-268q69 37 169 37q56 0 92.5 -12t62.5 -39q24 -24 34.5 -68
t10.5 -123z" />
    <glyph glyph-name="afii10052" unicode="&#x403;" horiz-adv-x="509" 
d="M384 862l-126 -126h-52l126 126h52zM494 627h-352v-627h-44v667h396v-40z" />
    <glyph glyph-name="afii10053" unicode="&#x404;" horiz-adv-x="635" 
d="M562 170q0 -103 -60 -143q-52 -35 -165 -35q-122 0 -179 41q-52 36 -67 116q-9 51 -9 184t9 184q15 80 67 116q57 41 179 41q129 0 179 -46q46 -40 46 -131h-41q-1 52 -17 81q-18 29 -60 42q-41 13 -116 13q-94 0 -139 -30q-41 -28 -54 -91q-9 -44 -9 -149h269v-40h-269
q0 -117 7 -159q12 -68 52 -97q46 -33 143 -33q117 0 158 34q34 30 35 102h41z" />
    <glyph glyph-name="afii10054" unicode="&#x405;" horiz-adv-x="640" 
d="M566 192q0 -121 -78 -166q-57 -34 -169 -34q-127 0 -181 35q-64 42 -64 143h42q1 -93 70 -120q40 -16 135 -16q108 0 152 32q49 36 49 123q0 65 -26 96q-23 25 -72 32q-20 3 -105 4q-91 1 -123 7q-59 9 -88 42q-34 39 -34 118q0 119 77 159q52 27 166 27q127 0 180 -35
q63 -41 63 -142h-41q-1 92 -70 120q-40 16 -134 16q-68 0 -103 -8q-47 -10 -69 -39q-26 -33 -26 -97q0 -63 29 -93q23 -24 73 -30q17 -2 101 -4q89 -1 123 -7q60 -11 89 -44q34 -40 34 -119z" />
    <glyph glyph-name="afii10055" unicode="&#x406;" horiz-adv-x="240" 
d="M142 0h-44v667h44v-667z" />
    <glyph glyph-name="afii10056" unicode="&#x407;" horiz-adv-x="240" 
d="M259 829q0 -33 -33 -33q-32 0 -32 33q0 17 7.5 24t24.5 7q33 0 33 -31zM45 829q0 -33 -33 -33q-32 0 -32 33q0 17 7.5 24t24.5 7q33 0 33 -31zM142 0h-44v667h44v-667z" />
    <glyph glyph-name="afii10057" unicode="&#x408;" horiz-adv-x="526" 
d="M434 206q0 -119 -45 -166q-45 -48 -150 -48q-108 0 -154 44q-43 42 -43 134h41q0 -84 44 -113q34 -23 112 -23q87 0 119 36.5t32 133.5v463h44v-461z" />
    <glyph glyph-name="afii10058" unicode="&#x409;" horiz-adv-x="994" 
d="M948 183q0 -86 -31 -128q-26 -37 -84 -48q-36 -7 -126 -7h-223v627h-213l-106 -481q-17 -82 -53 -118q-35 -35 -100 -36v40q43 2 65 24q29 29 44 96l114 515h293v-304h212q76 0 115 -11q48 -14 70 -52q23 -40 23 -117zM904 181q0 64 -18 95q-17 29 -56 39q-31 8 -100 8
h-202v-283h172q84 0 109 4q48 7 70 35q25 32 25 102z" />
    <glyph glyph-name="afii10059" unicode="&#x40a;" horiz-adv-x="1021" 
d="M975 183q0 -86 -31 -128q-26 -37 -84 -48q-36 -7 -126 -7h-223v323h-369v-323h-44v667h44v-304h369v304h44v-304h212q76 0 115 -11q48 -14 70 -52q23 -40 23 -117zM931 181q0 64 -18 95q-17 29 -56 39q-31 8 -100 8h-202v-283h172q84 0 109 4q48 7 70 35q25 32 25 102z
" />
    <glyph glyph-name="afii10060" unicode="&#x40b;" horiz-adv-x="702" 
d="M625 0h-44v163q0 64 -8 97q-11 46 -43 69q-37 26 -106 26q-52 0 -91 -9.5t-78 -32.5v-313h-44v627h-179v40h442v-40h-219v-268q69 37 169 37q104 0 151 -47q28 -28 39 -69.5t11 -118.5v-161z" />
    <glyph glyph-name="afii10061" unicode="&#x40c;" horiz-adv-x="572" 
d="M411 862l-126 -126h-52l126 126h52zM548 0h-65l-341 314v-314h-44v667h43v-315l345 315h61l-368 -332z" />
    <glyph glyph-name="uni040D" unicode="&#x40d;" horiz-adv-x="651" 
d="M553 0h-43v606l-356 -606h-56v667h43v-605l358 605h54v-667zM417 731h-51l-133 129h54z" />
    <glyph glyph-name="afii10062" unicode="&#x40e;" horiz-adv-x="540" 
d="M528 667l-332 -667h-49l105 207l-234 460h51l207 -411l202 411h50zM412 868q0 -73 -31 -103q-29 -28 -106 -28q-73 0 -106 28q-17 15 -24 38.5t-7 64.5h41q0 -60 19 -76q20 -17 77 -17t77 17t20 76h40z" />
    <glyph glyph-name="afii10145" unicode="&#x40f;" horiz-adv-x="653" 
d="M555 0h-208v-117h-43v117h-206v667h44v-627h369v627h44v-667z" />
    <glyph glyph-name="afii10017" unicode="&#x410;" horiz-adv-x="607" 
d="M581 0h-47l-78 204h-308l-77 -204h-45l254 667h46zM441 242l-138 373l-140 -373h278z" />
    <glyph glyph-name="afii10018" unicode="&#x411;" horiz-adv-x="612" 
d="M562 183q0 -86 -31 -128q-26 -37 -84 -48q-36 -7 -126 -7h-223v667h402v-39h-358v-265h212q76 0 115 -11q48 -14 70 -52q23 -40 23 -117zM518 181q0 64 -18 95q-17 29 -56 39q-31 8 -100 8h-202v-283h172q84 0 109 4q48 7 70 35q25 32 25 102z" />
    <glyph glyph-name="afii10019" unicode="&#x412;" horiz-adv-x="646" 
d="M562 183q0 -86 -31 -128q-26 -37 -84 -48q-36 -7 -126 -7h-223v667h217q90 0 121 -5q59 -9 87 -42q33 -40 33 -123q0 -60 -20 -99q-22 -43 -64 -55q46 -12 68 -51.5t22 -108.5zM513 500q0 86 -49 112q-31 16 -107 16h-49h-167v-267h174q76 0 104 4q47 8 69 36
q25 32 25 99zM518 180q0 71 -24 103q-21 28 -69 36q-27 4 -111 4h-173v-283h173q85 0 109 3q49 7 70 35q25 32 25 102z" />
    <glyph glyph-name="afii10020" unicode="&#x413;" horiz-adv-x="509" 
d="M494 627h-352v-627h-44v667h396v-40z" />
    <glyph glyph-name="afii10021" unicode="&#x414;" horiz-adv-x="632" 
d="M569 -117h-43v119h-471v-119h-43v159q42 0 65 23t36 78l124 524h291v-625h41v-159zM484 42v585h-211l-115 -484q-21 -83 -49 -101h375z" />
    <glyph glyph-name="afii10022" unicode="&#x415;" horiz-adv-x="583" 
d="M499 0h-401v667h401v-40h-356v-264h346v-40h-346v-283h356v-40z" />
    <glyph glyph-name="afii10024" unicode="&#x416;" horiz-adv-x="826" 
d="M802 0h-60l-307 314v-314h-44v314l-306 -314h-61l330 335l-329 332h56l310 -315v315h44v-315l308 315h58l-330 -332z" />
    <glyph glyph-name="afii10025" unicode="&#x417;" horiz-adv-x="637" 
d="M553 183q0 -109 -70 -154q-58 -37 -176 -37q-76 0 -120 11q-56 15 -83 52q-31 41 -31 115h41q0 -52 17 -81q18 -29 60 -42q41 -13 116 -13q110 0 155 33q46 34 46 113q0 63 -18 93q-17 30 -56 41.5t-123 11.5h-71v40h71q104 0 144 27q45 31 45 108q0 53 -17 80
q-17 28 -57 40t-119 12q-117 0 -158 -34q-35 -30 -35 -102h-41q0 114 75 152q50 25 159 25q138 0 192 -45q46 -39 46 -126q0 -60 -20 -96q-23 -41 -74 -60q67 -19 88 -70q14 -32 14 -94z" />
    <glyph glyph-name="afii10026" unicode="&#x418;" horiz-adv-x="651" 
d="M553 0h-43v606l-356 -606h-56v667h43v-605l358 605h54v-667z" />
    <glyph glyph-name="afii10027" unicode="&#x419;" horiz-adv-x="651" 
d="M553 0h-43v606l-356 -606h-56v667h43v-605l358 605h54v-667zM463 868q0 -73 -31 -103q-29 -28 -106 -28q-73 0 -106 28q-17 15 -24 38.5t-7 64.5h41q0 -60 19 -76q20 -17 77 -17t77 17t20 76h40z" />
    <glyph glyph-name="afii10028" unicode="&#x41a;" horiz-adv-x="572" 
d="M548 0h-65l-341 314v-314h-44v667h43v-315l345 315h61l-368 -332z" />
    <glyph glyph-name="afii10029" unicode="&#x41b;" horiz-adv-x="626" 
d="M528 0h-44v627h-213l-106 -481q-17 -82 -53 -118q-35 -35 -100 -36v40q43 2 65 24q29 29 44 96l114 515h293v-667z" />
    <glyph glyph-name="afii10030" unicode="&#x41c;" horiz-adv-x="819" 
d="M721 0h-43v605l-246 -605h-47l-245 605v-605h-42v667h59l253 -620l251 620h60v-667z" />
    <glyph glyph-name="afii10031" unicode="&#x41d;" horiz-adv-x="653" 
d="M555 0h-44v323h-369v-323h-44v667h44v-304h369v304h44v-667z" />
    <glyph glyph-name="afii10032" unicode="&#x41e;" horiz-adv-x="664" 
d="M582 334q0 -87 -1.5 -118t-5.5 -61q-14 -82 -64 -119q-57 -44 -179 -44t-179 44q-50 37 -64 119q-4 30 -5.5 61t-1.5 118t1.5 118t5.5 60q14 82 64 119q57 43 179 43t179 -43q50 -37 64 -118q4 -30 5.5 -60.5t1.5 -118.5zM538 333q0 125 -6 164q-11 71 -51 101
q-47 35 -149 35t-149 -35q-40 -30 -51 -101q-6 -39 -6 -164t6 -164q11 -70 51 -101q47 -34 149 -34t149 34q40 31 51 101q6 39 6 164z" />
    <glyph glyph-name="afii10033" unicode="&#x41f;" horiz-adv-x="653" 
d="M555 0h-44v627h-369v-627h-44v667h457v-667z" />
    <glyph glyph-name="afii10034" unicode="&#x420;" horiz-adv-x="602" 
d="M556 488q0 -84 -31 -125q-27 -36 -85 -47q-37 -7 -127 -7h-171v-309h-44v667h215q92 0 128 -7q58 -10 84 -46q31 -41 31 -126zM512 489q0 69 -26 100q-22 28 -71 35q-25 4 -106 4h-167v-279h167q83 0 107 4q49 7 71 34q25 32 25 102z" />
    <glyph glyph-name="afii10035" unicode="&#x421;" horiz-adv-x="635" 
d="M562 170q0 -103 -60 -143q-52 -35 -165 -35q-122 0 -179 41q-52 36 -67 116q-9 51 -9 184t9 184q15 80 67 116q57 41 179 41q129 0 179 -46q46 -40 46 -131h-41q-1 52 -17 81q-18 29 -60 42q-41 13 -116 13q-99 0 -144 -34q-40 -30 -51 -100q-7 -42 -7 -166t6 -165
q11 -70 52 -100q45 -34 144 -34q117 0 158 34q34 30 35 102h41z" />
    <glyph glyph-name="afii10036" unicode="&#x422;" horiz-adv-x="536" 
d="M506 627h-216v-627h-44v627h-216v40h476v-40z" />
    <glyph glyph-name="afii10037" unicode="&#x423;" horiz-adv-x="540" 
d="M528 667l-332 -667h-49l105 207l-234 460h51l207 -411l202 411h50z" />
    <glyph glyph-name="afii10038" unicode="&#x424;" horiz-adv-x="794" 
d="M718 338q0 -100 -19 -154q-16 -44 -50 -72q-36 -30 -96 -42q-50 -10 -134 -11v-59h-44v59q-95 2 -149 15q-49 12 -81 38q-38 31 -53.5 82.5t-15.5 143.5q0 100 19 154q16 43 50 71q35 29 96 40q48 9 134 10v54h44v-54q98 -2 149 -13q50 -11 81 -37q38 -31 53.5 -82
t15.5 -143zM674 336q0 90 -17 138q-13 38 -41 60q-48 36 -197 38v-472q149 2 197 38q31 24 44.5 70.5t13.5 127.5zM375 100v472q-149 -2 -197 -38q-31 -24 -44.5 -70.5t-13.5 -127.5q0 -90 17 -138q13 -38 41 -60q48 -36 197 -38z" />
    <glyph glyph-name="afii10039" unicode="&#x425;" horiz-adv-x="550" 
d="M513 0h-51l-189 302l-186 -302h-50l211 337l-208 330h50l186 -297l183 297h51l-209 -330z" />
    <glyph glyph-name="afii10040" unicode="&#x426;" horiz-adv-x="658" 
d="M596 -117h-43v117h-455v667h44v-627h369v627h44v-627h41v-157z" />
    <glyph glyph-name="afii10041" unicode="&#x427;" horiz-adv-x="607" 
d="M509 0h-44v306q-76 -38 -181 -38q-113 0 -163 51q-29 29 -39 72t-10 138v138h44v-144q0 -75 6 -107q9 -42 34 -67q38 -39 128 -39q70 0 125 17q21 7 56 24v316h44v-667z" />
    <glyph glyph-name="afii10042" unicode="&#x428;" horiz-adv-x="881" 
d="M783 0h-685v667h44v-627h276v627h44v-627h277v627h44v-667z" />
    <glyph glyph-name="afii10043" unicode="&#x429;" horiz-adv-x="886" 
d="M824 -117h-43v117h-683v667h44v-627h276v627h44v-627h277v627h44v-627h41v-157z" />
    <glyph glyph-name="afii10044" unicode="&#x42a;" horiz-adv-x="699" 
d="M653 183q0 -86 -31 -128q-26 -37 -84 -48q-36 -7 -126 -7h-223v627h-178v40h222v-304h212q76 0 115 -11q48 -14 70 -52q23 -40 23 -117zM609 181q0 64 -18 95q-17 29 -56 39q-31 8 -100 8h-202v-283h172q84 0 109 4q48 7 70 35q25 32 25 102z" />
    <glyph glyph-name="afii10045" unicode="&#x42b;" horiz-adv-x="806" 
d="M708 0h-44v667h44v-667zM562 183q0 -86 -31 -128q-26 -37 -84 -48q-36 -7 -126 -7h-223v667h44v-304h212q76 0 115 -11q48 -14 70 -52q23 -40 23 -117zM518 181q0 64 -18 95q-17 29 -56 39q-31 8 -100 8h-202v-283h172q84 0 109 4q48 7 70 35q25 32 25 102z" />
    <glyph glyph-name="afii10046" unicode="&#x42c;" horiz-adv-x="608" 
d="M562 183q0 -86 -31 -128q-26 -37 -84 -48q-36 -7 -126 -7h-223v667h44v-304h212q76 0 115 -11q48 -14 70 -52q23 -40 23 -117zM518 181q0 64 -18 95q-17 29 -56 39q-31 8 -100 8h-202v-283h172q84 0 109 4q48 7 70 35q25 32 25 102z" />
    <glyph glyph-name="afii10047" unicode="&#x42d;" horiz-adv-x="636" 
d="M554 333q0 -133 -9 -184q-15 -80 -67 -116q-57 -41 -179 -41q-129 0 -179 46q-46 41 -46 132h41q1 -52 17 -81q18 -29 60 -42q41 -13 116 -13q98 0 143 33q41 30 52 98q7 41 7 160h-269v40h269q0 105 -9 148q-13 62 -54 90q-45 30 -139 30q-117 0 -158 -34
q-34 -30 -35 -102h-41q0 103 60 143q52 34 165 34q122 0 179 -41q52 -36 67 -116q9 -51 9 -184z" />
    <glyph glyph-name="afii10048" unicode="&#x42e;" horiz-adv-x="891" 
d="M809 334q0 -87 -1.5 -118t-5.5 -61q-14 -82 -64 -119q-57 -44 -179 -44q-120 0 -177 42q-50 36 -64 116q-9 47 -9 173h-167v-323h-44v667h44v-304h167q0 116 10 164q16 74 66 108q57 39 174 39q122 0 179 -43q50 -37 64 -118q4 -30 5.5 -60.5t1.5 -118.5zM765 333
q0 125 -6 164q-11 71 -51 101q-47 35 -149 35t-149 -35q-40 -30 -51 -101q-6 -39 -6 -164t6 -164q11 -70 51 -101q47 -34 149 -34t149 34q40 31 51 101q6 39 6 164z" />
    <glyph glyph-name="afii10049" unicode="&#x42f;" horiz-adv-x="644" 
d="M141 490q0 -62 21 -92q19 -26 62 -34q28 -6 99 -6h189v270h-167q-81 0 -106 -4q-49 -7 -72 -34q-26 -32 -26 -100zM276 232l-152 -232h-54l209 317q-106 2 -147 48q-34 39 -34 122q0 88 32 129q27 36 86 46q32 5 125 5h215v-667h-44v317h-111q-33 0 -47 -2.5t-25 -11.5
q-14 -11 -53 -71z" />
    <glyph glyph-name="afii10065" unicode="&#x430;" horiz-adv-x="531" 
d="M455 0h-40v75q-40 -82 -178 -82q-99 0 -141 38q-38 34 -38 104q0 93 56 125q40 23 128 23h170q-1 73 -4 89q-6 38 -35 54q-34 19 -110 19q-74 0 -108 -18q-44 -24 -44 -80h-40q0 85 70 118q46 21 130 21q124 0 162 -55q15 -23 19 -60q3 -20 3 -53v-40v-278zM412 244h-174
q-76 0 -105 -22q-32 -24 -32 -86q0 -60 34 -83q31 -21 99 -21q114 0 151 57q27 39 27 131v24z" />
    <glyph glyph-name="afii10066" unicode="&#x431;" horiz-adv-x="550" 
d="M484 238q0 -87 -12 -132q-14 -57 -55 -83q-44 -30 -130 -30q-55 0 -90 9q-43 11 -69 37q-27 28 -36.5 67.5t-9.5 126.5v210q0 54 11.5 89t37.5 62q29 40 147 40q74 2 110 40q10 10 10 25h43q-1 -33 -20 -52q-49 -50 -130 -54q-99 -1 -128 -29q-20 -20 -29 -48.5t-9 -73.5
v-33q46 77 167 77q84 0 128 -31q39 -28 53 -87q11 -44 11 -130zM441 239q0 71 -7 105q-10 49 -39 73q-33 27 -98 27q-66 0 -102 -18q-38 -20 -55 -65q-16 -45 -16 -126q0 -78 9 -113q11 -47 46 -67q36 -21 111 -21q69 0 104 26q30 23 40 71q7 33 7 108z" />
    <glyph glyph-name="afii10067" unicode="&#x432;" horiz-adv-x="534" 
d="M465 134q0 -71 -30 -101q-23 -23 -61 -29q-25 -4 -88 -4h-202v478h197q70 0 91 -3q43 -6 64 -29q24 -28 24 -88q0 -91 -53 -111q58 -24 58 -113zM418 352q0 62 -34 78q-21 10 -83 10h-174v-175h154q58 0 73 2q33 4 47 21q17 20 17 64zM422 132q0 54 -22.5 74.5
t-83.5 20.5h-36h-153v-189h153h25q58 0 80 10q37 17 37 84z" />
    <glyph glyph-name="afii10068" unicode="&#x433;" horiz-adv-x="423" 
d="M411 439h-284v-439h-43v478h327v-39z" />
    <glyph glyph-name="afii10069" unicode="&#x434;" horiz-adv-x="520" 
d="M472 -117h-39v117h-378v-117h-43v155q34 0 53 18.5t29 61.5l81 360h261v-439h36v-156zM392 39v401h-182l-71 -319q-15 -63 -39 -82h292z" />
    <glyph glyph-name="afii10070" unicode="&#x435;" horiz-adv-x="530" 
d="M464 235h-355q0 -76 8 -111q12 -46 44 -67q36 -23 108 -23q70 0 105 20q42 24 42 77h40q0 -138 -188 -138q-86 0 -131 28q-42 26 -58 82q-13 46 -13 135q0 88 12 134q16 58 57 85q45 29 130 29q87 0 132 -30q41 -27 55 -85q12 -46 12 -136zM422 274q0 99 -37 136
q-35 36 -120 36q-94 0 -129 -48q-27 -38 -27 -124h313z" />
    <glyph glyph-name="afii10072" unicode="&#x436;" horiz-adv-x="653" 
d="M634 0h-57l-229 232v-232h-43v232l-229 -232h-57l247 247l-244 231h55l228 -216v216h43v-216l228 216h55l-244 -231z" />
    <glyph glyph-name="afii10073" unicode="&#x437;" horiz-adv-x="521" 
d="M455 134q0 -80 -59 -113q-48 -28 -146 -28q-93 0 -139 30q-53 33 -53 108h40q0 -61 55 -83q34 -14 96 -14q92 0 128 22q37 22 37 76q0 44 -13 63t-42.5 25.5t-102.5 6.5h-38v38h38q87 0 117 18q34 19 34 74q0 54 -40 72q-34 16 -118 16q-71 0 -107 -20q-44 -24 -44 -78
h-40q0 139 192 139q114 0 159 -33q40 -30 40 -94q0 -84 -63 -110q38 -12 53.5 -38t15.5 -77z" />
    <glyph glyph-name="afii10074" unicode="&#x438;" horiz-adv-x="544" 
d="M460 0h-43v415l-278 -415h-55v478h43v-421l279 421h54v-478z" />
    <glyph glyph-name="afii10075" unicode="&#x439;" horiz-adv-x="544" 
d="M460 0h-43v415l-278 -415h-55v478h43v-421l279 421h54v-478zM409 673q0 -73 -31 -103q-29 -28 -106 -28q-73 0 -106 28q-17 15 -24 38.5t-7 64.5h41q0 -60 19 -76q20 -17 77 -17t77 17t20 76h40z" />
    <glyph glyph-name="afii10076" unicode="&#x43a;" horiz-adv-x="463" 
d="M444 0h-61l-257 232v-232h-43v478h43v-216l256 216h59l-274 -231z" />
    <glyph glyph-name="afii10077" unicode="&#x43b;" horiz-adv-x="521" 
d="M437 0h-43v439h-183l-73 -321q-9 -40 -16 -58t-19 -32q-29 -35 -91 -35v39q35 0 53 20t30 74l81 352h261v-478z" />
    <glyph glyph-name="afii10078" unicode="&#x43c;" horiz-adv-x="665" 
d="M581 0h-42v407l-185 -407h-44l-184 406v-406h-42v478h54l195 -428l196 428h52v-478z" />
    <glyph glyph-name="afii10079" unicode="&#x43d;" horiz-adv-x="544" 
d="M460 0h-43v227h-290v-227h-43v478h43v-212h290v212h43v-478z" />
    <glyph glyph-name="afii10080" unicode="&#x43e;" horiz-adv-x="542" 
d="M476 239q0 -85 -11 -127q-14 -59 -56 -87q-47 -32 -138 -32t-138 32q-42 28 -57 87q-10 42 -10 127t10 128q15 58 57 87q47 32 138 32t138 -32q42 -29 56 -87q11 -43 11 -128zM433 239q0 78 -8 113q-11 48 -44 69q-36 24 -110 24t-110 -24q-33 -21 -44 -69
q-8 -35 -8 -113t8 -113q11 -47 44 -69q36 -23 110 -23t110 23q33 22 44 69q8 35 8 113z" />
    <glyph glyph-name="afii10081" unicode="&#x43f;" horiz-adv-x="544" 
d="M460 0h-43v439h-290v-439h-43v478h376v-478z" />
    <glyph glyph-name="afii10082" unicode="&#x440;" horiz-adv-x="552" 
d="M486 239q0 -86 -11 -130q-14 -58 -53 -85q-44 -31 -128 -31q-67 0 -109 22q-36 18 -58 55v-261h-43v669h41v-72q46 80 169 80q84 0 128 -31q39 -28 53 -86q11 -44 11 -130zM443 240q0 71 -6 104q-10 49 -39 73q-33 27 -99 27t-102 -18q-38 -19 -55 -63q-16 -44 -16 -123
q0 -125 44 -168q38 -38 129 -38q99 0 128 67q9 23 12.5 53t3.5 86z" />
    <glyph glyph-name="afii10083" unicode="&#x441;" horiz-adv-x="515" 
d="M457 131q0 -82 -65 -115q-44 -23 -123 -23q-87 0 -133 28q-42 26 -57 82q-13 46 -13 136q0 89 13 136q16 57 58 83q45 28 132 28q188 0 188 -139h-40q0 98 -147 98q-74 0 -110 -23q-33 -22 -43 -69q-8 -35 -8 -113t8 -113q11 -48 43 -69q36 -24 110 -24q71 0 105 19
q42 24 42 78h40z" />
    <glyph glyph-name="afii10084" unicode="&#x442;" horiz-adv-x="445" 
d="M419 439h-175v-439h-43v439h-175v39h393v-39z" />
    <glyph glyph-name="afii10085" unicode="&#x443;" horiz-adv-x="455" 
d="M428 478l-246 -669h-44l72 192l-177 477h45l155 -423l150 423h45z" />
    <glyph glyph-name="afii10086" unicode="&#x444;" horiz-adv-x="815" 
d="M749 239q0 -86 -10 -131q-13 -58 -48 -85q-39 -31 -113 -31q-79 0 -120 35q-13 11 -22 25l-7 12v-255h-43v255l-16 -24q-40 -48 -133 -48q-74 0 -113 31q-35 27 -48 85q-10 45 -10 131t10 131q13 59 48 87q39 31 113 31q79 0 120 -35q13 -11 22 -25l7 -12v281h43v-281
l16 24q40 48 133 48q74 0 113 -31q35 -28 48 -87q10 -45 10 -131zM706 240q0 63 -5.5 99t-18.5 59q-28 49 -102 49q-57 0 -89 -18q-34 -20 -48 -65q-15 -44 -15 -124q0 -125 39 -169q33 -38 113 -38q83 0 109 63q17 42 17 144zM387 240q0 125 -39 169q-33 38 -113 38
q-83 0 -109 -63q-17 -42 -17 -144q0 -63 5.5 -99t18.5 -59q28 -49 102 -49q57 0 89 18q34 20 48 65q15 44 15 124z" />
    <glyph glyph-name="afii10087" unicode="&#x445;" horiz-adv-x="457" 
d="M428 0h-52l-148 208l-148 -208h-51l174 242l-170 236h52l144 -203l146 203h50l-171 -235z" />
    <glyph glyph-name="afii10088" unicode="&#x446;" horiz-adv-x="544" 
d="M496 -117h-39v117h-373v478h43v-439h290v439h43v-439h36v-156z" />
    <glyph glyph-name="afii10089" unicode="&#x447;" horiz-adv-x="538" 
d="M442 0h-43v210q-60 -29 -150 -29q-98 0 -141 44q-29 29 -37 78q-5 31 -5 104v71h43v-77q0 -63 6 -91q7 -34 28 -55q32 -33 106 -33q91 0 150 32v224h43v-478z" />
    <glyph glyph-name="afii10090" unicode="&#x448;" horiz-adv-x="755" 
d="M671 0h-587v478h43v-439h229v439h43v-439h229v439h43v-478z" />
    <glyph glyph-name="afii10091" unicode="&#x449;" horiz-adv-x="755" 
d="M707 -117h-39v117h-584v478h43v-439h229v439h43v-439h229v439h43v-439h36v-156z" />
    <glyph glyph-name="afii10092" unicode="&#x44a;" horiz-adv-x="539" 
d="M489 133q0 -62 -20 -92q-19 -27 -59 -35q-28 -6 -96 -6h-201v439h-101v39h144v-212h180q54 0 80 -6t43 -23q30 -28 30 -104zM446 133q0 66 -34 83q-20 11 -83 11h-173v-190h156q51 0 69 2.5t32 10.5q33 19 33 83z" />
    <glyph glyph-name="afii10093" unicode="&#x44b;" horiz-adv-x="662" 
d="M578 0h-43v478h43v-478zM460 133q0 -62 -20 -92q-19 -27 -59 -35q-28 -6 -96 -6h-201v478h43v-212h180q54 0 80 -6t43 -23q30 -28 30 -104zM417 133q0 66 -34 83q-20 11 -83 11h-173v-190h156q51 0 69 2.5t32 10.5q33 19 33 83z" />
    <glyph glyph-name="afii10094" unicode="&#x44c;" horiz-adv-x="510" 
d="M460 133q0 -62 -20 -92q-19 -27 -59 -35q-28 -6 -96 -6h-201v478h43v-212h180q54 0 80 -6t43 -23q30 -28 30 -104zM417 133q0 66 -34 83q-20 11 -83 11h-173v-190h156q51 0 69 2.5t32 10.5q33 19 33 83z" />
    <glyph glyph-name="afii10095" unicode="&#x44d;" horiz-adv-x="515" 
d="M449 239q0 -90 -13 -136q-15 -56 -57 -82q-46 -28 -133 -28q-91 0 -137 31q-51 34 -51 107h40q0 -61 53 -83q33 -14 94 -14q71 0 107 22q33 21 45 65q8 34 9 106h-194v39h194q-1 66 -11 98q-12 42 -45 61q-36 20 -105 20q-147 0 -147 -98h-40q0 139 188 139q87 0 132 -28
q42 -26 58 -83q13 -47 13 -136z" />
    <glyph glyph-name="afii10096" unicode="&#x44e;" horiz-adv-x="738" 
d="M672 239q0 -84 -11 -127q-15 -59 -57 -87q-47 -32 -138 -32q-89 0 -136 30q-41 27 -56 82q-11 42 -12 122h-135v-227h-43v478h43v-212h135q1 74 14 114q17 52 58 78q47 28 133 28q91 0 138 -32q42 -29 56 -87q11 -43 11 -128zM629 239q0 78 -8 113q-11 48 -44 69
q-36 24 -110 24t-110 -24q-33 -21 -44 -69q-8 -35 -8 -113t8 -113q11 -47 44 -69q36 -23 110 -23t110 23q33 22 44 69q8 35 8 113z" />
    <glyph glyph-name="afii10097" unicode="&#x44f;" horiz-adv-x="534" 
d="M450 0h-43v219h-106q-37 0 -50.5 -2.5t-24.5 -10.5q-15 -11 -52 -69l-88 -137h-42l142 221q-60 4 -87 36q-25 29 -25 84q0 77 34 107t120 30h17h205v-478zM407 258v181h-162q-42 0 -62 -3t-34 -12q-33 -20 -33 -79q0 -60 33 -77q20 -10 70 -10h188z" />
    <glyph glyph-name="uni0450" unicode="&#x450;" horiz-adv-x="530" 
d="M464 235h-355q0 -76 8 -111q12 -46 44 -67q36 -23 108 -23q70 0 105 20q42 24 42 77h40q0 -138 -188 -138q-86 0 -131 28q-42 26 -58 82q-13 46 -13 135q0 88 12 134q16 58 57 85q45 29 130 29q87 0 132 -30q41 -27 55 -85q12 -46 12 -136zM422 274q0 99 -37 136
q-35 36 -120 36q-94 0 -129 -48q-27 -38 -27 -124h313zM352 538h-51l-133 129h54z" />
    <glyph glyph-name="afii10071" unicode="&#x451;" horiz-adv-x="530" 
d="M464 235h-355q0 -76 8 -111q12 -46 44 -67q36 -23 108 -23q70 0 105 20q42 24 42 77h40q0 -138 -188 -138q-86 0 -131 28q-42 26 -58 82q-13 46 -13 135q0 88 12 134q16 58 57 85q45 29 130 29q87 0 132 -30q41 -27 55 -85q12 -46 12 -136zM422 274q0 99 -37 136
q-35 36 -120 36q-94 0 -129 -48q-27 -38 -27 -124h313zM405 636q0 -33 -33 -33q-32 0 -32 33q0 17 7.5 24t24.5 7q33 0 33 -31zM191 636q0 -33 -33 -33q-32 0 -32 33q0 17 7.5 24t24.5 7q33 0 33 -31z" />
    <glyph glyph-name="afii10099" unicode="&#x452;" horiz-adv-x="553" 
d="M477 100q0 -107 -11 -159q-14 -67 -55 -98q-44 -33 -132 -33v40q70 0 103 25q32 24 43 81q9 45 9 144v147q0 88 -4 114q-6 36 -27 55q-30 29 -101 29q-115 0 -144 -84q-9 -25 -11.5 -52t-2.5 -97v-212h-43v550h-75v39h75v108h43v-108h172v-39h-172v-142q43 78 159 78
q93 0 134 -41q30 -31 37 -84q3 -24 3 -106v-155z" />
    <glyph glyph-name="afii10100" unicode="&#x453;" horiz-adv-x="423" 
d="M336 667l-126 -126h-52l126 126h52zM411 439h-284v-439h-43v478h327v-39z" />
    <glyph glyph-name="afii10101" unicode="&#x454;" horiz-adv-x="515" 
d="M457 131q0 -82 -65 -115q-44 -23 -123 -23q-87 0 -133 28q-42 26 -57 82q-13 46 -13 136q0 89 13 136q16 57 58 83q45 28 132 28q188 0 188 -139h-40q0 98 -147 98q-69 0 -105 -20q-33 -19 -45 -61q-10 -32 -11 -98h189v-39h-189q1 -72 9 -106q12 -44 45 -65
q36 -22 107 -22t105 19q42 24 42 78h40z" />
    <glyph glyph-name="afii10102" unicode="&#x455;" horiz-adv-x="501" 
d="M441 135q0 -81 -55 -115q-47 -28 -141 -27q-107 1 -148 35q-37 31 -37 103h40q0 -60 35 -80q31 -18 109 -18q88 0 123 26q31 23 31 74q0 49 -22 66q-20 15 -76 20l-119 7q-58 6 -83 29q-31 27 -31 93q0 82 54 113q45 26 141 25q107 0 147 -41q31 -33 31 -96h-41
q0 55 -33 77q-31 20 -103 20q-89 0 -122 -23q-30 -21 -31 -67q-1 -50 16.5 -66.5t77.5 -22.5l119 -8q60 -6 85 -29q33 -28 33 -95z" />
    <glyph glyph-name="afii10103" unicode="&#x456;" horiz-adv-x="211" 
d="M138 643q0 -33 -32 -33t-32 33q0 31 32 31t32 -31zM127 0h-43v478h43v-478z" />
    <glyph glyph-name="afii10104" unicode="&#x457;" horiz-adv-x="211" 
d="M245 636q0 -33 -33 -33q-32 0 -32 33q0 17 7.5 24t24.5 7q33 0 33 -31zM31 636q0 -33 -33 -33q-32 0 -32 33q0 17 7.5 24t24.5 7q33 0 33 -31zM127 0h-43v478h43v-478z" />
    <glyph glyph-name="afii10105" unicode="&#x458;" horiz-adv-x="211" 
d="M138 643q0 -33 -32 -33t-32 33q0 31 32 31t32 -31zM-39 -190v40h15q63 0 86 22q22 22 22 77v529h43v-525q0 -82 -38 -115q-34 -28 -109 -28h-19z" />
    <glyph glyph-name="afii10106" unicode="&#x459;" horiz-adv-x="820" 
d="M770 133q0 -62 -20 -92q-19 -27 -59 -35q-28 -6 -96 -6h-201v439h-183l-73 -321q-9 -40 -16 -58t-19 -32q-29 -35 -91 -35v39q35 0 53 20t30 74l81 352h261v-212h180q54 0 80 -6t43 -23q30 -28 30 -104zM727 133q0 66 -34 83q-20 11 -83 11h-173v-190h156q51 0 69 2.5
t32 10.5q33 19 33 83z" />
    <glyph glyph-name="afii10107" unicode="&#x45a;" horiz-adv-x="843" 
d="M793 133q0 -62 -20 -92q-19 -27 -59 -35q-28 -6 -96 -6h-201v227h-290v-227h-43v478h43v-212h290v212h43v-212h180q54 0 80 -6t43 -23q30 -28 30 -104zM750 133q0 66 -34 83q-20 11 -83 11h-173v-190h156q51 0 69 2.5t32 10.5q33 19 33 83z" />
    <glyph glyph-name="afii10108" unicode="&#x45b;" horiz-adv-x="553" 
d="M477 0h-43v247q0 88 -4 114q-6 36 -27 55q-30 29 -101 29q-115 0 -144 -84q-9 -25 -11.5 -52t-2.5 -97v-212h-43v550h-75v39h75v108h43v-108h172v-39h-172v-142q43 78 159 78q93 0 134 -41q30 -31 37 -84q3 -24 3 -106v-255z" />
    <glyph glyph-name="afii10109" unicode="&#x45c;" horiz-adv-x="463" 
d="M351 667l-126 -126h-52l126 126h52zM444 0h-61l-257 232v-232h-43v478h43v-216l256 216h59l-274 -231z" />
    <glyph glyph-name="uni045D" unicode="&#x45d;" horiz-adv-x="544" 
d="M460 0h-43v415l-278 -415h-55v478h43v-421l279 421h54v-478zM364 538h-51l-133 129h54z" />
    <glyph glyph-name="afii10110" unicode="&#x45e;" horiz-adv-x="455" 
d="M428 478l-246 -669h-44l72 192l-177 477h45l155 -423l150 423h45zM367 673q0 -73 -31 -103q-29 -28 -106 -28q-73 0 -106 28q-17 15 -24 38.5t-7 64.5h41q0 -60 19 -76q20 -17 77 -17t77 17t20 76h40z" />
    <glyph glyph-name="afii10193" unicode="&#x45f;" horiz-adv-x="544" 
d="M460 0h-168v-117h-39v117h-169v478h43v-439h290v439h43v-478z" />
    <glyph glyph-name="uni0462" unicode="&#x462;" horiz-adv-x="700" 
d="M11 497v40h179v130h44v-130h219v-40h-219v-134h212q76 0 115 -11q48 -14 70 -52q23 -40 23 -117q0 -86 -31 -128q-26 -37 -84 -48q-36 -7 -126 -7h-223v497h-179zM610 181q0 64 -18 95q-17 29 -56 39q-31 8 -100 8h-202v-283h172q84 0 109 4q48 7 70 35q25 32 25 102z
" />
    <glyph glyph-name="uni0463" unicode="&#x463;" horiz-adv-x="539" 
d="M12 439v39h101v189h43v-189h221v-39h-221v-173h180q54 0 80 -6t43 -23q30 -28 30 -104q0 -62 -20 -92q-19 -27 -59 -35q-28 -6 -96 -6h-201v439h-101zM446 133q0 66 -34 83q-20 11 -83 11h-173v-190h156q51 0 69 2.5t32 10.5q33 19 33 83z" />
    <glyph glyph-name="uni0472" unicode="&#x472;" horiz-adv-x="665" 
d="M582 334q0 -87 -1.5 -118t-5.5 -61q-14 -82 -64 -119q-57 -44 -179 -44t-179 44q-50 37 -64 119q-4 30 -5.5 61t-1.5 118t1.5 118t5.5 60q14 82 64 119q57 43 179 43t179 -43q50 -37 64 -119q4 -29 5.5 -60t1.5 -118zM332 34q101 0 147 33q41 30 52 98q7 40 7 158h-412
q0 -118 7 -158q11 -68 52 -98q46 -33 147 -33zM332 633q-97 0 -143 -31q-42 -28 -54 -92q-9 -42 -9 -147h412q0 105 -9 147q-12 64 -54 92q-46 31 -143 31z" />
    <glyph glyph-name="uni0473" unicode="&#x473;" horiz-adv-x="542" 
d="M476 239q0 -85 -11 -127q-14 -59 -56 -87q-47 -32 -138 -32t-138 32q-42 28 -57 87q-10 42 -10 127t10 128q15 58 57 87q47 32 138 32t138 -32q42 -29 56 -87q11 -43 11 -128zM271 34q71 0 108 22q33 20 44 65q9 34 10 106h-324q0 -72 9 -106q12 -45 45 -65
q36 -22 108 -22zM271 445q-69 0 -105 -21q-33 -19 -46 -60q-10 -33 -11 -98h324q-1 65 -11 98q-13 41 -46 60q-36 21 -105 21z" />
    <glyph glyph-name="uni0474" unicode="&#x474;" horiz-adv-x="595" 
d="M302 0h-46l-244 667h46l223 -612l169 464q21 59 32.5 83.5t24.5 40.5q27 31 76 32v-39q-19 -1 -31 -8t-22 -24q-11 -18 -38 -91z" />
    <glyph glyph-name="uni0475" unicode="&#x475;" horiz-adv-x="482" 
d="M253 0h-48l-184 478h45l164 -429l116 309q32 85 53 106q20 21 62 21v-39q-17 -1 -25.5 -5.5t-15.5 -15.5q-10 -15 -34 -78z" />
    <glyph glyph-name="afii10050" unicode="&#x490;" horiz-adv-x="509" 
d="M494 627h-352v-627h-44v667h356v82h40v-122z" />
    <glyph glyph-name="afii10098" unicode="&#x491;" horiz-adv-x="421" 
d="M411 439h-284v-439h-43v478h289v76h38v-115z" />
    <glyph glyph-name="uni0492" unicode="&#x492;" horiz-adv-x="558" 
d="M142 323v-323h-44v323h-98v40h98v304h396v-40h-352v-264h221v-40h-221z" />
    <glyph glyph-name="uni0493" unicode="&#x493;" horiz-adv-x="423" 
d="M84 266v212h327v-39h-284v-173h205v-39h-205v-227h-43v227h-56v39h56z" />
    <glyph glyph-name="uni049A" unicode="&#x49a;" horiz-adv-x="592" 
d="M548 39v-156h-39v117h-26l-341 314v-314h-44v667h43v-315l345 315h61l-368 -332l326 -296h43z" />
    <glyph glyph-name="uni049B" unicode="&#x49b;" horiz-adv-x="474" 
d="M444 39v-156h-39v117h-22l-257 232v-232h-43v478h43v-216l256 216h59l-274 -231l234 -208h43z" />
    <glyph glyph-name="uni04A2" unicode="&#x4a2;" horiz-adv-x="687" 
d="M555 39h38v-156h-39v117h-43v323h-369v-323h-44v667h44v-304h369v304h44v-628z" />
    <glyph glyph-name="uni04A3" unicode="&#x4a3;" horiz-adv-x="555" 
d="M460 39h38v-156h-39v117h-42v227h-290v-227h-43v478h43v-212h290v212h43v-439z" />
    <glyph glyph-name="uni04AE" unicode="&#x4ae;" horiz-adv-x="521" 
d="M510 667l-229 -373v-294h-43v294l-227 373h49l202 -331l200 331h48z" />
    <glyph glyph-name="uni04AF" unicode="&#x4af;" horiz-adv-x="446" 
d="M245 0v-191h-44l1 192l-175 477h45l150 -423l1 -2l1 2l150 423h45l-174 -477v-1z" />
    <glyph glyph-name="uni04B0" unicode="&#x4b0;" horiz-adv-x="521" 
d="M238 222v72l-227 373h49l202 -331l200 331h48l-229 -373v-72h157v-39h-157v-183h-43v183h-160v39h160z" />
    <glyph glyph-name="uni04B1" unicode="&#x4b1;" horiz-adv-x="446" 
d="M245 -80v-111h-44v111h-157v39h157v42l-174 477h45l150 -423l1 -3l1 3l150 423h45l-175 -477l1 -1v-41h159v-39h-159z" />
    <glyph glyph-name="uni04B8" unicode="&#x4b8;" horiz-adv-x="607" 
d="M311 311q54 2 98 16q21 7 56 24v316h44v-667h-44v306q-67 -34 -154 -37v-173h-44v172q-100 4 -146 51q-29 29 -39 72t-10 138v138h44v-144q0 -75 6 -107q9 -42 34 -67q34 -36 111 -39v167h44v-166z" />
    <glyph glyph-name="uni04BA" unicode="&#x4ba;" horiz-adv-x="607" 
d="M98 667h44v-306q76 38 181 38q113 0 163 -51q29 -29 39 -72t10 -138v-138h-44v144q0 75 -6 107q-9 42 -34 67q-38 39 -128 39q-70 0 -125 -17q-21 -7 -56 -24v-316h-44v667z" />
    <glyph glyph-name="uni04BB" unicode="&#x4bb;" horiz-adv-x="536" 
d="M460 0h-43v247q0 88 -4 114q-6 36 -27 55q-30 29 -101 29q-115 0 -144 -84q-9 -25 -11.5 -52t-2.5 -97v-212h-43v697h43v-289q43 78 159 78q93 0 134 -41q30 -31 37 -84q3 -24 3 -106v-255z" />
    <glyph glyph-name="uni04C0" unicode="&#x4c0;" horiz-adv-x="240" 
d="M142 0h-44v667h44v-667z" />
    <glyph glyph-name="uni04CF" unicode="&#x4cf;" horiz-adv-x="240" 
d="M142 0h-44v667h44v-667z" />
    <glyph glyph-name="uni04D8" unicode="&#x4d8;" horiz-adv-x="665" 
d="M82 518q16 84 72 120q57 36 170 36q122 0 179 -43q50 -37 64 -119q4 -29 5.5 -60t1.5 -118t-1.5 -118t-5.5 -61q-14 -82 -64 -119q-57 -44 -179 -44t-179 44q-50 37 -64 119q-4 30 -5.5 61t-1.5 118v29h44h412q0 105 -9 147q-12 64 -54 92q-46 31 -143 31
q-103 0 -149 -36q-37 -28 -49 -87zM324 34q101 0 147 33q41 30 52 98q7 40 7 158h-412q0 -118 7 -158q11 -68 52 -98q46 -33 147 -33z" />
    <glyph glyph-name="afii10846" unicode="&#x4d9;" horiz-adv-x="530" 
d="M66 244h355q0 76 -8 111q-12 46 -44 67q-36 23 -108 23q-70 0 -105 -20q-42 -24 -42 -77h-40q0 138 188 138q86 0 131 -28q42 -26 58 -82q13 -46 13 -135q0 -88 -12 -134q-16 -58 -57 -85q-45 -29 -130 -29q-87 0 -132 30q-41 27 -55 85q-12 46 -12 136zM108 205
q0 -99 37 -136q35 -36 120 -36q94 0 129 48q27 38 27 124h-313z" />
    <glyph glyph-name="uni04E8" unicode="&#x4e8;" horiz-adv-x="664" 
d="M574 334q0 -87 -1.5 -118t-5.5 -61q-14 -82 -64 -119q-57 -44 -179 -44t-179 44q-50 37 -64 119q-4 30 -5.5 61t-1.5 118t1.5 118t5.5 60q14 82 64 119q57 43 179 43t179 -43q50 -37 64 -118q4 -30 5.5 -60.5t1.5 -118.5zM530 323h-412q0 -118 7 -158q11 -68 52 -98
q46 -33 147 -33t147 33q41 30 52 98q7 40 7 158zM118 363h412q0 106 -8 148q-13 63 -54 91q-47 31 -144 31t-144 -31q-41 -28 -54 -91q-8 -42 -8 -148z" />
    <glyph glyph-name="uni04E9" unicode="&#x4e9;" horiz-adv-x="542" 
d="M476 239q0 -85 -11 -127q-14 -59 -56 -87q-47 -32 -138 -32t-138 32q-42 28 -57 87q-10 42 -10 127t10 128q15 58 57 87q47 32 138 32t138 -32q42 -29 56 -87q11 -43 11 -128zM433 219h-324q1 -68 10 -102q13 -43 46 -62q36 -21 106 -21t106 21q33 19 46 62q9 34 10 102z
M109 259h324q-1 69 -10 102q-13 43 -46 63q-36 21 -106 21t-106 -21q-33 -20 -46 -63q-9 -33 -10 -102z" />
    <glyph glyph-name="Wgrave" unicode="&#x1e80;" horiz-adv-x="872" 
d="M822 667l-166 -667h-53l-167 609l-168 -609h-54l-164 667h45l148 -605l167 605h53l167 -605l149 605h43zM504 731h-51l-133 129h54z" />
    <glyph glyph-name="wgrave" unicode="&#x1e81;" horiz-adv-x="693" 
d="M664 478l-142 -478h-50l-125 425l-126 -425h-50l-142 478h45l123 -423l126 423h48l127 -423l122 423h44zM416 538h-51l-133 129h54z" />
    <glyph glyph-name="Wacute" unicode="&#x1e82;" horiz-adv-x="872" 
d="M822 667l-166 -667h-53l-167 609l-168 -609h-54l-164 667h45l148 -605l167 605h53l167 -605l149 605h43zM564 860l-133 -129h-51l130 129h54z" />
    <glyph glyph-name="wacute" unicode="&#x1e83;" horiz-adv-x="693" 
d="M664 478l-142 -478h-50l-125 425l-126 -425h-50l-142 478h45l123 -423l126 423h48l127 -423l122 423h44zM463 667l-133 -129h-51l130 129h54z" />
    <glyph glyph-name="Wdieresis" unicode="&#x1e84;" horiz-adv-x="872" 
d="M822 667l-166 -667h-53l-167 609l-168 -609h-54l-164 667h45l148 -605l167 605h53l167 -605l149 605h43zM575 828q0 -33 -33 -33q-32 0 -32 33q0 17 7.5 24t24.5 7q33 0 33 -31zM361 828q0 -33 -33 -33q-32 0 -32 33q0 17 7.5 24t24.5 7q33 0 33 -31z" />
    <glyph glyph-name="wdieresis" unicode="&#x1e85;" horiz-adv-x="693" 
d="M664 478l-142 -478h-50l-125 425l-126 -425h-50l-142 478h45l123 -423l126 423h48l127 -423l122 423h44zM486 636q0 -33 -33 -33q-32 0 -32 33q0 17 7.5 24t24.5 7q33 0 33 -31zM272 636q0 -33 -33 -33q-32 0 -32 33q0 17 7.5 24t24.5 7q33 0 33 -31z" />
    <glyph glyph-name="Ygrave" unicode="&#x1ef2;" horiz-adv-x="521" 
d="M510 667l-229 -373v-294h-43v294l-227 373h49l202 -331l200 331h48zM348 731h-51l-133 129h54z" />
    <glyph glyph-name="ygrave" unicode="&#x1ef3;" horiz-adv-x="536" 
d="M410 68q-45 -76 -160 -76q-93 0 -134 41q-30 30 -37 83q-3 24 -3 107v255h43v-247q0 -88 4 -114q6 -36 27 -55q30 -29 101 -29q115 0 144 84q9 25 11.5 52t2.5 97v212h43v-435q0 -58 -4.5 -90t-16.5 -58q-23 -48 -78 -71q-42 -18 -97 -18q-93 0 -136 37q-40 34 -40 101
h41q0 -54 36 -77q32 -21 96 -21q51 0 86 16q37 17 53 50q11 24 14.5 53t3.5 103zM359 538h-51l-133 129h54z" />
    <glyph glyph-name="uni2011" unicode="&#x2011;" horiz-adv-x="480" 
d="M386 220h-292v40h292v-40z" />
    <glyph glyph-name="figuredash" unicode="&#x2012;" horiz-adv-x="563" 
d="M520 220h-477v40h477v-40z" />
    <glyph glyph-name="afii00208" unicode="&#x2015;" horiz-adv-x="1000" 
d="M900 220h-800v40h800v-40z" />
    <glyph glyph-name="zerosuperior" unicode="&#x2070;" 
d="M307 467q0 -79 -5 -112q-8 -48 -33 -70q-29 -24 -87 -24t-87 24q-25 22 -33 70q-5 33 -5 112t5 112q8 48 33 70q29 24 87 24t87 -24q25 -22 33 -70q5 -33 5 -112zM270 467q0 64 -3 93t-12 46q-17 32 -73 32q-41 0 -60 -16q-17 -14 -22.5 -45t-5.5 -110q0 -65 3 -94
t12 -46q9 -16 26 -23.5t47 -7.5q41 0 60 15q17 14 22.5 45.5t5.5 110.5z" />
    <glyph glyph-name="foursuperior" unicode="&#x2074;" 
d="M316 379h-62v-112h-37v112h-180v33l182 255h35v-256h62v-32zM217 411v198l-138 -198h138z" />
    <glyph glyph-name="fivesuperior" unicode="&#x2075;" 
d="M308 388q0 -73 -33 -102q-29 -25 -95 -25q-65 0 -93 24q-26 22 -27 70h35q0 -36 23 -48q19 -11 62 -11q54 0 73 22q18 19 18 68q0 57 -17 78q-19 22 -67 22q-83 0 -86 -52h-34v233h228v-33h-192v-145q26 31 85 31q71 0 98 -38q22 -31 22 -94z" />
    <glyph glyph-name="sixsuperior" unicode="&#x2076;" 
d="M305 390q0 -71 -33 -102q-30 -27 -89 -27q-86 0 -112 64q-15 37 -15 128q0 84 6 119q8 52 34 75q30 26 90 26q113 0 113 -95h-36q0 60 -77 60q-41 0 -60 -13q-18 -13 -24.5 -41.5t-8.5 -98.5q30 38 93 38q68 0 95 -35q24 -31 24 -98zM269 390q0 58 -20 79q-18 19 -60 19
q-93 0 -93 -95q0 -54 24 -77q21 -20 63 -20q50 0 69 24q17 22 17 70z" />
    <glyph glyph-name="sevensuperior" unicode="&#x2077;" 
d="M311 637l-173 -370h-41l172 366h-203v34h245v-30z" />
    <glyph glyph-name="eightsuperior" unicode="&#x2078;" 
d="M308 378q0 -69 -35 -95q-29 -22 -91 -22q-70 0 -98 29q-27 27 -27 88q0 41 11.5 64t36.5 33q-25 10 -34.5 30t-9.5 62q0 61 31 85q28 21 90 21q70 0 98 -28q24 -24 24 -78q0 -38 -10 -58q-10 -22 -33 -33q25 -10 36 -32.5t11 -65.5zM271 376q0 51 -24 68q-19 14 -65 14
q-53 0 -71 -17q-17 -18 -17 -64q0 -52 23 -68q18 -13 65 -13q53 0 71 18q18 17 18 62zM267 565q0 44 -20 59q-19 13 -65 13q-52 0 -70 -17q-15 -15 -15 -53q0 -47 23 -63q19 -13 62 -13q50 0 67 16q18 16 18 58z" />
    <glyph glyph-name="ninesuperior" unicode="&#x2079;" 
d="M60 544q0 71 33 102q30 27 89 27q86 0 112 -63q15 -37 15 -128q0 -88 -6 -124q-8 -51 -34 -73q-29 -24 -90 -24q-113 0 -113 95h36q0 -60 77 -60q41 0 61 13q18 13 25 42.5t7 97.5q-30 -38 -93 -38q-68 0 -95 35q-24 31 -24 98zM96 544q0 -58 20 -79q18 -19 60 -19
q93 0 93 95q0 54 -24 77q-21 20 -63 20q-50 0 -69 -24q-17 -22 -17 -70z" />
    <glyph glyph-name="parenleftsuperior" unicode="&#x207d;" horiz-adv-x="200" 
d="M68 457q0 152 17 215q12 33 39.5 48.5t75.5 16.5v-36q-35 -1 -52 -8t-24 -25q-8 -20 -13 -78.5t-5 -131.5q0 -67 5 -126t13 -82q7 -17 23 -24q17 -7 53 -8v-36q-54 1 -81 18q-24 15 -34 47q-17 61 -17 210z" />
    <glyph glyph-name="parenrightsuperior" unicode="&#x207e;" horiz-adv-x="200" 
d="M132 457q0 -149 -17 -210q-10 -34 -37.5 -49t-77.5 -16v36q35 1 52 8t24 24q8 23 13 82t5 126q0 73 -5 131.5t-13 78.5q-7 18 -23 25q-17 7 -53 8v36q52 -1 81 -19q23 -16 34 -46q17 -63 17 -215z" />
    <glyph glyph-name="zeroinferior" unicode="&#x2080;" 
d="M307 200q0 -79 -5 -112q-8 -48 -33 -70q-29 -24 -87 -24t-87 24q-25 22 -33 70q-5 33 -5 112t5 112q8 48 33 70q29 24 87 24t87 -24q25 -22 33 -70q5 -33 5 -112zM270 200q0 64 -3 93t-12 46q-17 32 -73 32q-41 0 -60 -16q-17 -14 -22.5 -45t-5.5 -110q0 -65 3 -94
t12 -46q9 -16 26 -23.5t47 -7.5q41 0 60 15q17 14 22.5 45.5t5.5 110.5z" />
    <glyph glyph-name="oneinferior" unicode="&#x2081;" 
d="M210 0h-38v349l-69 -63l-25 24l98 90h34v-400z" />
    <glyph glyph-name="twoinferior" unicode="&#x2082;" 
d="M308 293q0 -66 -42 -93q-13 -9 -29.5 -15t-60.5 -18q-31 -8 -44.5 -14t-21.5 -14q-17 -18 -17 -59v-45h214v-35h-252v90q0 62 44 87q16 10 45 18l40 11q49 14 65 28q22 20 22 59q0 47 -25 64q-20 14 -64 14q-50 0 -70 -13t-20 -44h-38q0 54 38 75q30 17 89 17
q69 0 98 -27t29 -86z" />
    <glyph glyph-name="threeinferior" unicode="&#x2083;" 
d="M314 109q0 -69 -39 -95q-30 -20 -93 -20q-68 0 -98 23t-30 71h38q1 -35 25 -48q20 -11 65 -11q57 0 75 15q20 16 20 64q0 55 -25 72q-19 14 -68 14h-64v34h64q51 0 68 13q21 16 21 57q0 45 -20 60q-19 13 -69 13q-51 0 -71 -15q-19 -13 -19 -44h-37q0 54 38 76
q30 18 89 18q72 0 100 -27q26 -25 26 -79q0 -38 -9 -57q-10 -22 -37 -32q26 -9 38 -33.5t12 -68.5z" />
    <glyph glyph-name="fourinferior" unicode="&#x2084;" 
d="M316 112h-62v-112h-37v112h-180v33l182 255h35v-256h62v-32zM217 144v198l-138 -198h138z" />
    <glyph glyph-name="fiveinferior" unicode="&#x2085;" 
d="M308 121q0 -73 -33 -102q-29 -25 -95 -25q-65 0 -93 24q-26 22 -27 70h35q0 -36 23 -48q19 -11 62 -11q54 0 73 22q18 19 18 68q0 57 -17 78q-19 22 -67 22q-83 0 -86 -52h-34v233h228v-33h-192v-145q26 31 85 31q71 0 98 -38q22 -31 22 -94z" />
    <glyph glyph-name="sixinferior" unicode="&#x2086;" 
d="M305 123q0 -71 -33 -102q-30 -27 -89 -27q-86 0 -112 64q-15 37 -15 128q0 84 6 119q8 52 34 75q30 26 90 26q113 0 113 -95h-36q0 60 -77 60q-41 0 -60 -13q-18 -13 -24.5 -41.5t-8.5 -98.5q30 38 93 38q68 0 95 -35q24 -31 24 -98zM269 123q0 58 -20 79q-18 19 -60 19
q-93 0 -93 -95q0 -54 24 -77q21 -20 63 -20q50 0 69 24q17 22 17 70z" />
    <glyph glyph-name="seveninferior" unicode="&#x2087;" 
d="M311 370l-173 -370h-41l172 366h-203v34h245v-30z" />
    <glyph glyph-name="eightinferior" unicode="&#x2088;" 
d="M308 111q0 -69 -35 -95q-29 -22 -91 -22q-70 0 -98 29q-27 27 -27 88q0 41 11.5 64t36.5 33q-25 10 -34.5 30t-9.5 62q0 61 31 85q28 21 90 21q70 0 98 -28q24 -24 24 -78q0 -38 -10 -58q-10 -22 -33 -33q25 -10 36 -32.5t11 -65.5zM271 109q0 51 -24 68q-19 14 -65 14
q-53 0 -71 -17q-17 -18 -17 -64q0 -52 23 -68q18 -13 65 -13q53 0 71 18q18 17 18 62zM267 298q0 44 -20 59q-19 13 -65 13q-52 0 -70 -17q-15 -15 -15 -53q0 -47 23 -63q19 -13 62 -13q50 0 67 16q18 16 18 58z" />
    <glyph glyph-name="nineinferior" unicode="&#x2089;" 
d="M60 277q0 71 33 102q30 27 89 27q86 0 112 -63q15 -37 15 -128q0 -88 -6 -124q-8 -51 -34 -73q-29 -24 -90 -24q-113 0 -113 95h36q0 -60 77 -60q41 0 61 13q18 13 25 42.5t7 97.5q-30 -38 -93 -38q-68 0 -95 35q-24 31 -24 98zM96 277q0 -58 20 -79q18 -19 60 -19
q93 0 93 95q0 54 -24 77q-21 20 -63 20q-50 0 -69 -24q-17 -22 -17 -70z" />
    <glyph glyph-name="parenleftinferior" unicode="&#x208d;" horiz-adv-x="200" 
d="M68 190q0 152 17 215q12 33 39.5 48.5t75.5 16.5v-36q-35 -1 -52 -8t-24 -25q-8 -20 -13 -78.5t-5 -131.5q0 -67 5 -126t13 -82q7 -17 23 -24q17 -7 53 -8v-36q-54 1 -81 18q-24 15 -34 47q-17 61 -17 210z" />
    <glyph glyph-name="parenrightinferior" unicode="&#x208e;" horiz-adv-x="200" 
d="M132 190q0 -149 -17 -210q-10 -34 -37.5 -49t-77.5 -16v36q35 1 52 8t24 24q8 23 13 82t5 126q0 73 -5 131.5t-13 78.5q-7 18 -23 25q-17 7 -53 8v36q52 -1 81 -19q23 -16 34 -46q17 -63 17 -215z" />
    <glyph glyph-name="franc" unicode="&#x20a3;" horiz-adv-x="922" 
d="M494 627h-352v-264h343v-40h-343v-323h-44v667h396v-40zM910 234h-40q0 57 -34 79q-26 17 -78 17q-104 0 -130 -88q-8 -26 -10 -51.5t-2 -98.5v-92h-43v363h41v-70q42 78 148 78q148 0 148 -137z" />
    <glyph glyph-name="lira" unicode="&#x20a4;" horiz-adv-x="562" 
d="M64 204v39h56v72h-56v39h56v107v29q0 51 7 78q9 35 31 57q51 49 156 49q52 0 83.5 -5.5t53.5 -19.5q53 -32 53 -116h-42q0 65 -46 87q-29 14 -92 14q-52 0 -84 -9.5t-52 -30.5q-14 -14 -19.5 -36.5t-5.5 -62.5v-31v-110h295v-39h-295v-72h295v-39h-295v-164h350v-40h-449
v40h56v164h-56z" />
    <glyph glyph-name="peseta" unicode="&#x20a7;" horiz-adv-x="1540" 
d="M556 488q0 -84 -31 -125q-27 -36 -85 -47q-37 -7 -127 -7h-171v-309h-44v667h215q92 0 128 -7q58 -10 84 -46q31 -41 31 -126zM512 489q0 69 -26 100q-22 28 -71 35q-25 4 -106 4h-167v-279h167q83 0 107 4q49 7 71 34q25 32 25 102zM1014 131q0 -78 -46 -111
q-38 -27 -108 -27q-81 0 -117 35q-33 33 -33 103v308h-82v39h82v189h43v-189h221v-39h-221v-308q0 -59 30 -81q25 -17 79 -17q62 0 88 25q24 23 24 73h40zM1480 135q0 -81 -55 -115q-47 -28 -141 -27q-107 1 -148 35q-37 31 -37 103h40q0 -60 35 -80q31 -18 109 -18
q88 0 123 26q31 23 31 74q0 49 -22 66q-20 15 -76 20l-119 7q-58 6 -83 29q-31 27 -31 93q0 82 54 113q45 26 141 25q107 0 147 -41q31 -33 31 -96h-41q0 55 -33 77q-31 20 -103 20q-89 0 -122 -23q-30 -21 -31 -67q-1 -50 16.5 -66.5t77.5 -22.5l119 -8q60 -6 85 -29
q33 -28 33 -95z" />
    <glyph glyph-name="afii61289" unicode="&#x2113;" horiz-adv-x="500" 
d="M249 269q-23 -117 -28 -149.5t-5 -58.5q0 -25 18 -25q26 0 51 54q8 18 19 18q13 0 13 -15q0 -23 -26 -60q-37 -47 -76 -47q-34 0 -51 26q-16 24 -16 62q0 36 10 127q-41 -38 -49 -38q-5 0 -9.5 5t-4.5 11q0 10 20 27q23 20 50 52q44 230 96 331q45 89 101 89q31 0 48 -25
q15 -22 15 -56q0 -40 -17 -92t-47 -100q-36 -58 -112 -136zM260 333q125 140 125 260q0 20 -6.5 32t-16.5 12q-11 0 -22.5 -12.5t-18.5 -31.5q-31 -86 -61 -260z" />
    <glyph glyph-name="afii61352" unicode="&#x2116;" horiz-adv-x="1030" 
d="M964 319q0 -61 -9 -92q-11 -40 -41 -58q-34 -20 -99 -20q-99 0 -129 50q-20 34 -20 120q0 61 9 91q11 38 41 56q34 19 99 19q100 0 129 -48q20 -33 20 -118zM954 0h-278v39h278v-39zM553 0h-56l-356 606v-606h-43v667h54l358 -605v605h43v-667zM923 319q0 45 -4 67
t-15 35q-22 25 -89 25q-50 0 -73 -13q-21 -11 -28 -34.5t-7 -79.5q0 -46 4 -68t15 -36q22 -27 89 -27q49 0 73 14q20 12 27.5 36t7.5 81z" />
    <glyph glyph-name="estimated" unicode="&#x212e;" horiz-adv-x="798" 
d="M769 311h-599q-6 0 -6 -4v-181q0 -10 9 -21q47 -49 109 -75q56 -23 118 -23q74 0 141 34q56 28 97 76h54q-55 -64 -137 -99q-74 -31 -156 -31q-100 0 -187 45q-83 45 -132 120q-51 78 -51 168t51 167q49 76 132 120q87 45 187 45t187 -45q83 -44 132 -120q51 -77 51 -167
v-9zM634 335v181q0 12 -10 22q-47 47 -108 72q-56 22 -116 22q-70 0 -133 -30q-52 -25 -93 -67q-10 -10 -10 -23v-177q0 -5 6 -5h459q5 0 5 5z" />
    <glyph glyph-name="onethird" unicode="&#x2153;" horiz-adv-x="824" 
d="M773 109q0 -69 -39 -95q-30 -20 -93 -20q-68 0 -98 23t-30 71h38q1 -35 25 -48q20 -11 65 -11q57 0 75 15q20 16 20 64q0 55 -25 72q-19 14 -68 14h-64v34h64q51 0 68 13q21 16 21 57q0 45 -20 60q-19 13 -69 13q-51 0 -71 -15q-19 -13 -19 -44h-37q0 54 38 76
q30 18 89 18q72 0 100 -27q26 -25 26 -79q0 -38 -9 -57q-10 -22 -37 -32q26 -9 38 -33.5t12 -68.5zM599 667l-338 -667h-39l336 667h41zM210 267h-38v349l-69 -63l-25 24l98 90h34v-400z" />
    <glyph glyph-name="twothirds" unicode="&#x2154;" horiz-adv-x="824" 
d="M593 667l-338 -667h-39l336 667h41zM773 109q0 -69 -39 -95q-30 -20 -93 -20q-68 0 -98 23t-30 71h38q1 -35 25 -48q20 -11 65 -11q57 0 75 15q20 16 20 64q0 55 -25 72q-19 14 -68 14h-64v34h64q51 0 68 13q21 16 21 57q0 45 -20 60q-19 13 -69 13q-51 0 -71 -15
q-19 -13 -19 -44h-37q0 54 38 76q30 18 89 18q72 0 100 -27q26 -25 26 -79q0 -38 -9 -57q-10 -22 -37 -32q26 -9 38 -33.5t12 -68.5zM308 560q0 -66 -42 -93q-13 -9 -29.5 -15t-60.5 -18q-31 -8 -44.5 -14t-21.5 -14q-17 -18 -17 -59v-45h214v-35h-252v90q0 62 44 87
q16 10 45 18l40 11q49 14 65 28q22 20 22 59q0 47 -25 64q-20 14 -64 14q-50 0 -70 -13t-20 -44h-38q0 54 38 75q30 17 89 17q69 0 98 -27t29 -86z" />
    <glyph glyph-name="oneeighth" unicode="&#x215b;" horiz-adv-x="824" 
d="M767 111q0 -69 -35 -95q-29 -22 -91 -22q-70 0 -98 29q-27 27 -27 88q0 41 11.5 64t36.5 33q-25 10 -34.5 30t-9.5 62q0 61 31 85q28 21 90 21q70 0 98 -28q24 -24 24 -78q0 -38 -10 -58q-10 -22 -33 -33q25 -10 36 -32.5t11 -65.5zM730 109q0 51 -24 68q-19 14 -65 14
q-53 0 -71 -17q-17 -18 -17 -64q0 -52 23 -68q18 -13 65 -13q53 0 71 18q18 17 18 62zM726 298q0 44 -20 59q-19 13 -65 13q-52 0 -70 -17q-15 -15 -15 -53q0 -47 23 -63q19 -13 62 -13q50 0 67 16q18 16 18 58zM599 667l-338 -667h-39l336 667h41zM210 267h-38v349l-69 -63
l-25 24l98 90h34v-400z" />
    <glyph glyph-name="threeeighths" unicode="&#x215c;" horiz-adv-x="824" 
d="M767 111q0 -69 -35 -95q-29 -22 -91 -22q-70 0 -98 29q-27 27 -27 88q0 41 11.5 64t36.5 33q-25 10 -34.5 30t-9.5 62q0 61 31 85q28 21 90 21q70 0 98 -28q24 -24 24 -78q0 -38 -10 -58q-10 -22 -33 -33q25 -10 36 -32.5t11 -65.5zM730 109q0 51 -24 68q-19 14 -65 14
q-53 0 -71 -17q-17 -18 -17 -64q0 -52 23 -68q18 -13 65 -13q53 0 71 18q18 17 18 62zM726 298q0 44 -20 59q-19 13 -65 13q-52 0 -70 -17q-15 -15 -15 -53q0 -47 23 -63q19 -13 62 -13q50 0 67 16q18 16 18 58zM314 376q0 -69 -39 -95q-30 -20 -93 -20q-68 0 -98 23t-30 71
h38q1 -35 25 -48q20 -11 65 -11q57 0 75 15q20 16 20 64q0 55 -25 72q-19 14 -68 14h-64v34h64q51 0 68 13q21 16 21 57q0 45 -20 60q-19 13 -69 13q-51 0 -71 -15q-19 -13 -19 -44h-37q0 54 38 76q30 18 89 18q72 0 100 -27q26 -25 26 -79q0 -38 -9 -57q-10 -22 -37 -32
q26 -9 38 -33.5t12 -68.5zM599 667l-338 -667h-39l336 667h41z" />
    <glyph glyph-name="fiveeighths" unicode="&#x215d;" horiz-adv-x="824" 
d="M767 111q0 -69 -35 -95q-29 -22 -91 -22q-70 0 -98 29q-27 27 -27 88q0 41 11.5 64t36.5 33q-25 10 -34.5 30t-9.5 62q0 61 31 85q28 21 90 21q70 0 98 -28q24 -24 24 -78q0 -38 -10 -58q-10 -22 -33 -33q25 -10 36 -32.5t11 -65.5zM730 109q0 51 -24 68q-19 14 -65 14
q-53 0 -71 -17q-17 -18 -17 -64q0 -52 23 -68q18 -13 65 -13q53 0 71 18q18 17 18 62zM726 298q0 44 -20 59q-19 13 -65 13q-52 0 -70 -17q-15 -15 -15 -53q0 -47 23 -63q19 -13 62 -13q50 0 67 16q18 16 18 58zM308 388q0 -73 -33 -102q-29 -25 -95 -25q-65 0 -93 24
q-26 22 -27 70h35q0 -36 23 -48q19 -11 62 -11q54 0 73 22q18 19 18 68q0 57 -17 78q-19 22 -67 22q-83 0 -86 -52h-34v233h228v-33h-192v-145q26 31 85 31q71 0 98 -38q22 -31 22 -94zM599 667l-338 -667h-39l336 667h41z" />
    <glyph glyph-name="seveneighths" unicode="&#x215e;" horiz-adv-x="824" 
d="M311 637l-173 -370h-41l172 366h-203v34h245v-30zM767 111q0 -69 -35 -95q-29 -22 -91 -22q-70 0 -98 29q-27 27 -27 88q0 41 11.5 64t36.5 33q-25 10 -34.5 30t-9.5 62q0 61 31 85q28 21 90 21q70 0 98 -28q24 -24 24 -78q0 -38 -10 -58q-10 -22 -33 -33
q25 -10 36 -32.5t11 -65.5zM730 109q0 51 -24 68q-19 14 -65 14q-53 0 -71 -17q-17 -18 -17 -64q0 -52 23 -68q18 -13 65 -13q53 0 71 18q18 17 18 62zM726 298q0 44 -20 59q-19 13 -65 13q-52 0 -70 -17q-15 -15 -15 -53q0 -47 23 -63q19 -13 62 -13q50 0 67 16
q18 16 18 58zM599 667l-338 -667h-39l336 667h41z" />
    <glyph glyph-name="arrowleft" unicode="&#x2190;" horiz-adv-x="720" 
d="M685 306h-575l280 -278l-28 -28l-326 326l326 325l28 -28l-280 -277h575v-40z" />
    <glyph glyph-name="arrowup" unicode="&#x2191;" horiz-adv-x="721" 
d="M686 323l-28 -28l-277 280v-575h-40v575l-278 -280l-28 28l325 326z" />
    <glyph glyph-name="arrowright" unicode="&#x2192;" horiz-adv-x="720" 
d="M685 326l-326 -326l-28 28l280 278h-575v40h575l-280 277l28 28z" />
    <glyph glyph-name="arrowdown" unicode="&#x2193;" horiz-adv-x="720" 
d="M686 326l-325 -326l-326 326l28 28l278 -280v575h40v-575l277 280z" />
    <glyph glyph-name="uni2196" unicode="&#x2196;" horiz-adv-x="721" 
d="M597 223l-28 -28l-407 407l1 -395h-39v460h460v-38l-394 1z" />
    <glyph glyph-name="uni2197" unicode="&#x2197;" horiz-adv-x="721" 
d="M597 667l-1 -460h-35l-3 10l1 385l-407 -407l-28 28l407 407l-394 -1v38h460z" />
    <glyph glyph-name="uni2198" unicode="&#x2198;" horiz-adv-x="720" 
d="M596 0h-460v39l395 -1l-407 407l28 28l407 -407l-1 395h38v-461z" />
    <glyph glyph-name="uni2199" unicode="&#x2199;" horiz-adv-x="720" 
d="M596 444l-407 -407l394 2v-39h-459v461h38l-1 -395l406 407z" />
    <glyph glyph-name="minus" unicode="&#x2212;" horiz-adv-x="563" 
d="M520 220h-477v40h477v-40z" />
    <glyph glyph-name="fraction" unicode="&#x2215;" horiz-adv-x="94" 
d="M236 667l-338 -667h-39l336 667h41z" />
    <glyph glyph-name="dotmath" unicode="&#x22c5;" horiz-adv-x="209" 
d="M139 335q0 -34 -35 -34q-34 0 -34 34t34 34q35 0 35 -34z" />
    <glyph glyph-name="Caron" horiz-adv-x="415" 
d="M361 862l-133 -129h-41l-132 129h51l101 -100l102 100h52z" />
    <glyph glyph-name="Breve" horiz-adv-x="415" 
d="M335 867q0 -73 -31 -103q-29 -28 -106 -28q-73 0 -106 28q-17 15 -24 38.5t-7 64.5h41q0 -60 19 -76q20 -17 77 -17t77 17t20 76h40z" />
    <glyph glyph-name="Tilde" horiz-adv-x="415" 
d="M392 826l-53 -29q-32 -18 -67 -18q-30 0 -55 14l-39 22q-19 9 -35 9q-18 0 -37 -11l-65 -36l-20 31l65 37q33 16 61 16t55 -15q36 -20 39 -21q19 -9 36 -9q18 0 36 10l61 32z" />
    <glyph glyph-name="Hungarumlaut" horiz-adv-x="415" 
d="M408 862l-126 -126h-53l127 126h52zM239 862l-126 -126h-53l127 126h52z" />
    <glyph glyph-name="Cedilla" horiz-adv-x="415" 
d="M179 0h35v-47q65 0 65 -67q0 -40 -19 -57q-19 -16 -57 -16q-41 0 -58.5 14t-17.5 47h33q0 -19 9 -25.5t34 -6.5q24 0 32.5 9t8.5 33q0 31 -21 38q-8 3 -44 4v74z" />
    <glyph glyph-name="Ogonek" horiz-adv-x="410" 
d="M215 10l51 -10q-52 -20 -73 -47q-18 -23 -18 -56q0 -60 73 -60q10 0 30 2v-31q-20 -3 -38 -3q-51 0 -77 24q-26 23 -26 66q0 77 78 115z" />
    <glyph glyph-name="Macron" horiz-adv-x="415" 
d="M368 807h-320v38h320v-38z" />
    <glyph glyph-name="Commaaccent" horiz-adv-x="410" 
d="M229 -77q0 -36 -7 -53.5t-29 -38.5l-32 -30l-29 29q15 13 34 31q14 12 17.5 23t3.5 38v34h42v-33z" />
    <glyph glyph-name="commaaccent" horiz-adv-x="410" 
d="M229 -77q0 -36 -7 -53.5t-29 -38.5l-32 -30l-29 29q15 13 34 31q14 12 17.5 23t3.5 38v34h42v-33z" />
    <glyph glyph-name="parenleft.numr" horiz-adv-x="200" 
d="M68 457q0 152 17 215q12 33 39.5 48.5t75.5 16.5v-36q-35 -1 -52 -8t-24 -25q-8 -20 -13 -78.5t-5 -131.5q0 -67 5 -126t13 -82q7 -17 23 -24q17 -7 53 -8v-36q-54 1 -81 18q-24 15 -34 47q-17 61 -17 210z" />
    <glyph glyph-name="one.taboldstyle" horiz-adv-x="550" 
d="M311 0h-43v614l-138 -124l-28 28l168 149h41v-667z" />
    <glyph glyph-name="two.taboldstyle" horiz-adv-x="550" 
d="M477 489q0 -90 -48 -137q-31 -30 -116 -58l-103 -35q-56 -24 -72 -55q-13 -25 -13 -77v-87h350v-40h-393v146q0 57 27.5 92.5t89.5 59.5l116 39q63 23 85 47q34 35 34 105q0 56 -16 88q-28 57 -139 57q-86 0 -122 -25q-33 -24 -33 -76h-42q0 82 57 114q46 27 138 27
q101 0 149 -39q51 -41 51 -146z" />
    <glyph glyph-name="zero.dnom" 
d="M307 200q0 -79 -5 -112q-8 -48 -33 -70q-29 -24 -87 -24t-87 24q-25 22 -33 70q-5 33 -5 112t5 112q8 48 33 70q29 24 87 24t87 -24q25 -22 33 -70q5 -33 5 -112zM270 200q0 64 -3 93t-12 46q-17 32 -73 32q-41 0 -60 -16q-17 -14 -22.5 -45t-5.5 -110q0 -65 3 -94
t12 -46q9 -16 26 -23.5t47 -7.5q41 0 60 15q17 14 22.5 45.5t5.5 110.5z" />
    <glyph glyph-name="nine.dnom" 
d="M60 277q0 71 33 102q30 27 89 27q86 0 112 -63q15 -37 15 -128q0 -88 -6 -124q-8 -51 -34 -73q-29 -24 -90 -24q-113 0 -113 95h36q0 -60 77 -60q41 0 61 13q18 13 25 42.5t7 97.5q-30 -38 -93 -38q-68 0 -95 35q-24 31 -24 98zM96 277q0 -58 20 -79q18 -19 60 -19
q93 0 93 95q0 54 -24 77q-21 20 -63 20q-50 0 -69 -24q-17 -22 -17 -70z" />
    <glyph glyph-name="eight.dnom" 
d="M308 111q0 -69 -35 -95q-29 -22 -91 -22q-70 0 -98 29q-27 27 -27 88q0 41 11.5 64t36.5 33q-25 10 -34.5 30t-9.5 62q0 61 31 85q28 21 90 21q70 0 98 -28q24 -24 24 -78q0 -38 -10 -58q-10 -22 -33 -33q25 -10 36 -32.5t11 -65.5zM271 109q0 51 -24 68q-19 14 -65 14
q-53 0 -71 -17q-17 -18 -17 -64q0 -52 23 -68q18 -13 65 -13q53 0 71 18q18 17 18 62zM267 298q0 44 -20 59q-19 13 -65 13q-52 0 -70 -17q-15 -15 -15 -53q0 -47 23 -63q19 -13 62 -13q50 0 67 16q18 16 18 58z" />
    <glyph glyph-name="seven.dnom" 
d="M311 370l-173 -370h-41l172 366h-203v34h245v-30z" />
    <glyph glyph-name="six.dnom" 
d="M305 123q0 -71 -33 -102q-30 -27 -89 -27q-86 0 -112 64q-15 37 -15 128q0 84 6 119q8 52 34 75q30 26 90 26q113 0 113 -95h-36q0 60 -77 60q-41 0 -60 -13q-18 -13 -24.5 -41.5t-8.5 -98.5q30 38 93 38q68 0 95 -35q24 -31 24 -98zM269 123q0 58 -20 79q-18 19 -60 19
q-93 0 -93 -95q0 -54 24 -77q21 -20 63 -20q50 0 69 24q17 22 17 70z" />
    <glyph glyph-name="five.dnom" 
d="M308 121q0 -73 -33 -102q-29 -25 -95 -25q-65 0 -93 24q-26 22 -27 70h35q0 -36 23 -48q19 -11 62 -11q54 0 73 22q18 19 18 68q0 57 -17 78q-19 22 -67 22q-83 0 -86 -52h-34v233h228v-33h-192v-145q26 31 85 31q71 0 98 -38q22 -31 22 -94z" />
    <glyph glyph-name="four.dnom" 
d="M316 112h-62v-112h-37v112h-180v33l182 255h35v-256h62v-32zM217 144v198l-138 -198h138z" />
    <glyph glyph-name="three.dnom" 
d="M314 109q0 -69 -39 -95q-30 -20 -93 -20q-68 0 -98 23t-30 71h38q1 -35 25 -48q20 -11 65 -11q57 0 75 15q20 16 20 64q0 55 -25 72q-19 14 -68 14h-64v34h64q51 0 68 13q21 16 21 57q0 45 -20 60q-19 13 -69 13q-51 0 -71 -15q-19 -13 -19 -44h-37q0 54 38 76
q30 18 89 18q72 0 100 -27q26 -25 26 -79q0 -38 -9 -57q-10 -22 -37 -32q26 -9 38 -33.5t12 -68.5z" />
    <glyph glyph-name="two.dnom" 
d="M308 293q0 -66 -42 -93q-13 -9 -29.5 -15t-60.5 -18q-31 -8 -44.5 -14t-21.5 -14q-17 -18 -17 -59v-45h214v-35h-252v90q0 62 44 87q16 10 45 18l40 11q49 14 65 28q22 20 22 59q0 47 -25 64q-20 14 -64 14q-50 0 -70 -13t-20 -44h-38q0 54 38 75q30 17 89 17
q69 0 98 -27t29 -86z" />
    <glyph glyph-name="one.dnom" 
d="M210 0h-38v349l-69 -63l-25 24l98 90h34v-400z" />
    <glyph glyph-name="zero.numr" 
d="M307 467q0 -79 -5 -112q-8 -48 -33 -70q-29 -24 -87 -24t-87 24q-25 22 -33 70q-5 33 -5 112t5 112q8 48 33 70q29 24 87 24t87 -24q25 -22 33 -70q5 -33 5 -112zM270 467q0 64 -3 93t-12 46q-17 32 -73 32q-41 0 -60 -16q-17 -14 -22.5 -45t-5.5 -110q0 -65 3 -94
t12 -46q9 -16 26 -23.5t47 -7.5q41 0 60 15q17 14 22.5 45.5t5.5 110.5z" />
    <glyph glyph-name="nine.numr" 
d="M60 544q0 71 33 102q30 27 89 27q86 0 112 -63q15 -37 15 -128q0 -88 -6 -124q-8 -51 -34 -73q-29 -24 -90 -24q-113 0 -113 95h36q0 -60 77 -60q41 0 61 13q18 13 25 42.5t7 97.5q-30 -38 -93 -38q-68 0 -95 35q-24 31 -24 98zM96 544q0 -58 20 -79q18 -19 60 -19
q93 0 93 95q0 54 -24 77q-21 20 -63 20q-50 0 -69 -24q-17 -22 -17 -70z" />
    <glyph glyph-name="eight.numr" 
d="M308 378q0 -69 -35 -95q-29 -22 -91 -22q-70 0 -98 29q-27 27 -27 88q0 41 11.5 64t36.5 33q-25 10 -34.5 30t-9.5 62q0 61 31 85q28 21 90 21q70 0 98 -28q24 -24 24 -78q0 -38 -10 -58q-10 -22 -33 -33q25 -10 36 -32.5t11 -65.5zM271 376q0 51 -24 68q-19 14 -65 14
q-53 0 -71 -17q-17 -18 -17 -64q0 -52 23 -68q18 -13 65 -13q53 0 71 18q18 17 18 62zM267 565q0 44 -20 59q-19 13 -65 13q-52 0 -70 -17q-15 -15 -15 -53q0 -47 23 -63q19 -13 62 -13q50 0 67 16q18 16 18 58z" />
    <glyph glyph-name="seven.numr" 
d="M311 637l-173 -370h-41l172 366h-203v34h245v-30z" />
    <glyph glyph-name="six.numr" 
d="M305 390q0 -71 -33 -102q-30 -27 -89 -27q-86 0 -112 64q-15 37 -15 128q0 84 6 119q8 52 34 75q30 26 90 26q113 0 113 -95h-36q0 60 -77 60q-41 0 -60 -13q-18 -13 -24.5 -41.5t-8.5 -98.5q30 38 93 38q68 0 95 -35q24 -31 24 -98zM269 390q0 58 -20 79q-18 19 -60 19
q-93 0 -93 -95q0 -54 24 -77q21 -20 63 -20q50 0 69 24q17 22 17 70z" />
    <glyph glyph-name="five.numr" 
d="M308 388q0 -73 -33 -102q-29 -25 -95 -25q-65 0 -93 24q-26 22 -27 70h35q0 -36 23 -48q19 -11 62 -11q54 0 73 22q18 19 18 68q0 57 -17 78q-19 22 -67 22q-83 0 -86 -52h-34v233h228v-33h-192v-145q26 31 85 31q71 0 98 -38q22 -31 22 -94z" />
    <glyph glyph-name="four.numr" 
d="M316 379h-62v-112h-37v112h-180v33l182 255h35v-256h62v-32zM217 411v198l-138 -198h138z" />
    <glyph glyph-name="three.numr" 
d="M314 376q0 -69 -39 -95q-30 -20 -93 -20q-68 0 -98 23t-30 71h38q1 -35 25 -48q20 -11 65 -11q57 0 75 15q20 16 20 64q0 55 -25 72q-19 14 -68 14h-64v34h64q51 0 68 13q21 16 21 57q0 45 -20 60q-19 13 -69 13q-51 0 -71 -15q-19 -13 -19 -44h-37q0 54 38 76
q30 18 89 18q72 0 100 -27q26 -25 26 -79q0 -38 -9 -57q-10 -22 -37 -32q26 -9 38 -33.5t12 -68.5z" />
    <glyph glyph-name="two.numr" 
d="M308 560q0 -66 -42 -93q-13 -9 -29.5 -15t-60.5 -18q-31 -8 -44.5 -14t-21.5 -14q-17 -18 -17 -59v-45h214v-35h-252v90q0 62 44 87q16 10 45 18l40 11q49 14 65 28q22 20 22 59q0 47 -25 64q-20 14 -64 14q-50 0 -70 -13t-20 -44h-38q0 54 38 75q30 17 89 17
q69 0 98 -27t29 -86z" />
    <glyph glyph-name="one.numr" 
d="M210 267h-38v349l-69 -63l-25 24l98 90h34v-400z" />
    <glyph glyph-name="zerooldstyle" horiz-adv-x="561" 
d="M484 333q0 -111 -3 -157.5t-13 -73.5q-36 -109 -188 -109q-81 0 -128 30q-42 27 -59 79q-10 27 -13 73.5t-3 157.5q0 127 4.5 174.5t19.5 78.5q24 48 72 70q42 18 107 18q74 0 119 -24q39 -21 60 -64q15 -31 20 -80.5t5 -172.5zM441 333q0 171 -14 216q-15 47 -52 67
q-34 18 -95 18q-69 0 -104 -24q-29 -20 -42 -61q-14 -45 -14 -216q0 -111 4 -159t15 -73q16 -36 49 -52t92 -16q63 0 98 19q29 16 43 49q12 26 16 75.5t4 156.5z" />
    <glyph glyph-name="nineoldstyle" horiz-adv-x="557" 
d="M480 362q0 -165 -13 -236q-13 -73 -68 -106q-47 -27 -129 -27q-185 0 -185 141h42q0 -101 142 -101q72 0 108 23q30 20 43 62q9 31 12.5 76.5t3.5 141.5q-48 -87 -167 -87q-112 0 -156 56q-38 50 -38 158q0 117 54 167q47 44 144 44q75 0 124 -32q44 -28 62 -77
q21 -58 21 -203zM432 459q0 98 -43 139q-38 35 -115 35q-91 0 -126 -44q-31 -38 -31 -125q0 -104 37 -142q33 -32 110 -32q168 0 168 169z" />
    <glyph glyph-name="eightoldstyle" horiz-adv-x="562" 
d="M485 181q0 -111 -57 -154q-47 -34 -147 -34q-114 0 -160 46q-44 44 -44 142q0 80 28 120q25 34 75 46q-54 14 -75.5 48.5t-21.5 107.5q0 100 52 138q45 33 146 33q115 0 159 -44q39 -39 39 -127q0 -70 -21 -105q-22 -37 -75 -51q57 -14 81 -57q21 -39 21 -109zM436 501
q0 52 -14 80t-46.5 40.5t-94.5 12.5q-96 0 -127 -32q-28 -28 -28 -99q0 -87 42 -115q33 -22 113 -22q58 0 88 10q35 11 51 39q16 30 16 86zM442 178q0 93 -43 124q-34 24 -118 24q-62 0 -94 -10q-36 -12 -51 -43q-16 -32 -16 -94q0 -61 16 -92q15 -29 47.5 -41t97.5 -12
q61 0 92 10q37 12 53 43t16 91z" />
    <glyph glyph-name="sevenoldstyle" horiz-adv-x="455" 
d="M427 628l-291 -628h-47l292 627h-352v40h398v-39z" />
    <glyph glyph-name="sixoldstyle" horiz-adv-x="559" 
d="M482 204q0 -117 -54 -167q-47 -44 -144 -44q-75 0 -124 32q-44 28 -62 77q-21 58 -21 203q0 165 13 236q13 73 68 106q47 27 129 27q185 0 185 -141h-42q0 101 -142 101q-72 0 -108 -23q-30 -20 -43 -62q-9 -31 -12.5 -76.5t-3.5 -141.5q48 87 167 87q112 0 156 -56
q38 -50 38 -158zM440 203q0 104 -37 142q-33 32 -110 32q-168 0 -168 -169q0 -98 43 -139q38 -35 115 -35q91 0 126 44q31 38 31 125z" />
    <glyph glyph-name="three.taboldstyle" horiz-adv-x="550" 
d="M468 182q0 -111 -58 -154q-48 -35 -148 -35q-102 0 -149 34t-47 108h42q0 -59 42 -82q36 -20 112 -20q95 0 129 33q34 32 34 113q0 50 -9 78t-30 44q-19 14 -46.5 19.5t-75.5 5.5h-94v41h94q57 0 87 9q35 11 51 40q17 29 17 85q0 52 -14 80t-46.5 40.5t-94.5 12.5
q-87 0 -123 -26q-33 -23 -33 -75h-42q0 82 58 114q47 27 140 27q115 0 159 -44q39 -39 39 -127q0 -66 -20 -102q-22 -39 -72 -54q58 -14 80 -62q18 -36 18 -103z" />
    <glyph glyph-name="four.taboldstyle" horiz-adv-x="550" 
d="M492 199h-98v-199h-43v199h-299v39l297 429h45v-428h98v-40zM351 239v361l-249 -361h249z" />
    <glyph glyph-name="five.taboldstyle" horiz-adv-x="550" 
d="M481 203q0 -121 -53 -168q-47 -42 -153 -42q-104 0 -149 36q-42 34 -42 106h41q0 -60 40 -82q34 -19 110 -19q98 0 132 41q31 36 31 124q0 64 -10 98q-13 41 -44 60q-34 20 -97 20q-148 0 -152 -88h-40v378h364v-40h-323v-261q40 52 153 52q114 0 158 -63q34 -49 34 -152
z" />
    <glyph glyph-name="six.taboldstyle" horiz-adv-x="550" 
d="M478 204q0 -117 -54 -167q-47 -44 -144 -44q-75 0 -124 32q-44 28 -62 77q-21 58 -21 203q0 165 13 236q13 73 68 106q47 27 129 27q185 0 185 -141h-42q0 101 -142 101q-72 0 -108 -23q-30 -20 -43 -62q-9 -31 -12.5 -76.5t-3.5 -141.5q48 87 167 87q112 0 156 -56
q38 -50 38 -158zM436 203q0 104 -37 142q-33 32 -110 32q-168 0 -168 -169q0 -98 43 -139q38 -35 115 -35q91 0 126 44q31 38 31 125z" />
    <glyph glyph-name="seven.taboldstyle" horiz-adv-x="550" 
d="M482 628l-291 -628h-47l292 627h-352v40h398v-39z" />
    <glyph glyph-name="eight.taboldstyle" horiz-adv-x="550" 
d="M480 181q0 -111 -57 -154q-47 -34 -147 -34q-114 0 -160 46q-44 44 -44 142q0 80 28 120q25 34 75 46q-54 14 -75.5 48.5t-21.5 107.5q0 100 52 138q45 33 146 33q115 0 159 -44q39 -39 39 -127q0 -70 -21 -105q-22 -37 -75 -51q57 -14 81 -57q21 -39 21 -109zM431 501
q0 52 -14 80t-46.5 40.5t-94.5 12.5q-96 0 -127 -32q-28 -28 -28 -99q0 -87 42 -115q33 -22 113 -22q58 0 88 10q35 11 51 39q16 30 16 86zM437 178q0 93 -43 124q-34 24 -118 24q-62 0 -94 -10q-36 -12 -51 -43q-16 -32 -16 -94q0 -61 16 -92q15 -29 47.5 -41t97.5 -12
q61 0 92 10q37 12 53 43t16 91z" />
    </font>
</defs>
</svg>
